  0
SECTION
  2
HEADER
  9
$ACADVER
  1
AC1015
  9
$ACADMAINTVER
 70
     6
  9
$DWGCODEPAGE
  3
ANSI_1252
  9
$INSBASE
 10
0.0
 20
0.0
 30
0.0
  9
$EXTMIN
 10
-85.73985996170931
 20
-129.1649686581778
 30
0.0
  9
$EXTMAX
 10
1263.396363331402
 20
682.26391742075
 30
0.0
  9
$LIMMIN
 10
0.0
 20
0.0
  9
$LIMMAX
 10
420.0
 20
297.0
  9
$ORTHOMODE
 70
     0
  9
$REGENMODE
 70
     1
  9
$FILLMODE
 70
     1
  9
$QTEXTMODE
 70
     0
  9
$MIRRTEXT
 70
     0
  9
$LTSCALE
 40
1.0
  9
$ATTMODE
 70
     1
  9
$TEXTSIZE
 40
2.5
  9
$TRACEWID
 40
1.0
  9
$TEXTSTYLE
  7
Standard
  9
$CLAYER
  8
0
  9
$CELTYPE
  6
ByLayer
  9
$CECOLOR
 62
   256
  9
$CELTSCALE
 40
1.0
  9
$DISPSILH
 70
     0
  9
$DIMSCALE
 40
1.0
  9
$DIMASZ
 40
2.5
  9
$DIMEXO
 40
0.625
  9
$DIMDLI
 40
3.75
  9
$DIMRND
 40
0.0
  9
$DIMDLE
 40
0.0
  9
$DIMEXE
 40
1.25
  9
$DIMTP
 40
0.0
  9
$DIMTM
 40
0.0
  9
$DIMTXT
 40
2.5
  9
$DIMCEN
 40
2.5
  9
$DIMTSZ
 40
0.0
  9
$DIMTOL
 70
     0
  9
$DIMLIM
 70
     0
  9
$DIMTIH
 70
     0
  9
$DIMTOH
 70
     0
  9
$DIMSE1
 70
     0
  9
$DIMSE2
 70
     0
  9
$DIMTAD
 70
     1
  9
$DIMZIN
 70
     8
  9
$DIMBLK
  1

  9
$DIMASO
 70
     1
  9
$DIMSHO
 70
     1
  9
$DIMPOST
  1

  9
$DIMAPOST
  1

  9
$DIMALT
 70
     0
  9
$DIMALTD
 70
     3
  9
$DIMALTF
 40
0.03937007874016
  9
$DIMLFAC
 40
1.0
  9
$DIMTOFL
 70
     1
  9
$DIMTVP
 40
0.0
  9
$DIMTIX
 70
     0
  9
$DIMSOXD
 70
     0
  9
$DIMSAH
 70
     0
  9
$DIMBLK1
  1

  9
$DIMBLK2
  1

  9
$DIMSTYLE
  2
ISO-25
  9
$DIMCLRD
 70
     0
  9
$DIMCLRE
 70
     0
  9
$DIMCLRT
 70
     0
  9
$DIMTFAC
 40
1.0
  9
$DIMGAP
 40
0.625
  9
$DIMJUST
 70
     0
  9
$DIMSD1
 70
     0
  9
$DIMSD2
 70
     0
  9
$DIMTOLJ
 70
     0
  9
$DIMTZIN
 70
     8
  9
$DIMALTZ
 70
     0
  9
$DIMALTTZ
 70
     0
  9
$DIMUPT
 70
     0
  9
$DIMDEC
 70
     2
  9
$DIMTDEC
 70
     2
  9
$DIMALTU
 70
     2
  9
$DIMALTTD
 70
     3
  9
$DIMTXSTY
  7
Standard
  9
$DIMAUNIT
 70
     0
  9
$DIMADEC
 70
     0
  9
$DIMALTRND
 40
0.0
  9
$DIMAZIN
 70
     0
  9
$DIMDSEP
 70
    44
  9
$DIMATFIT
 70
     3
  9
$DIMFRAC
 70
     0
  9
$DIMLDRBLK
  1

  9
$DIMLUNIT
 70
     2
  9
$DIMLWD
 70
    -2
  9
$DIMLWE
 70
    -2
  9
$DIMTMOVE
 70
     0
  9
$LUNITS
 70
     2
  9
$LUPREC
 70
     3
  9
$SKETCHINC
 40
1.0
  9
$FILLETRAD
 40
19.0
  9
$AUNITS
 70
     0
  9
$AUPREC
 70
     0
  9
$MENU
  1
.
  9
$ELEVATION
 40
0.0
  9
$PELEVATION
 40
0.0
  9
$THICKNESS
 40
0.0
  9
$LIMCHECK
 70
     0
  9
$CHAMFERA
 40
10.0
  9
$CHAMFERB
 40
10.0
  9
$CHAMFERC
 40
20.0
  9
$CHAMFERD
 40
0.0
  9
$SKPOLY
 70
     0
  9
$TDCREATE
 40
2455023.074859514
  9
$TDUCREATE
 40
2455022.637359514
  9
$TDUPDATE
 40
2456995.673127974
  9
$TDUUPDATE
 40
2456995.235627974
  9
$TDINDWG
 40
0.4134681481
  9
$TDUSRTIMER
 40
2456995.235512905
  9
$USRTIMER
 70
     1
  9
$ANGBASE
 50
0.0
  9
$ANGDIR
 70
     0
  9
$PDMODE
 70
     0
  9
$PDSIZE
 40
0.0
  9
$PLINEWID
 40
0.0
  9
$SPLFRAME
 70
     0
  9
$SPLINETYPE
 70
     6
  9
$SPLINESEGS
 70
     8
  9
$HANDSEED
  5
39A
  9
$SURFTAB1
 70
     6
  9
$SURFTAB2
 70
     6
  9
$SURFTYPE
 70
     6
  9
$SURFU
 70
     6
  9
$SURFV
 70
     6
  9
$UCSBASE
  2

  9
$UCSNAME
  2

  9
$UCSORG
 10
0.0
 20
0.0
 30
0.0
  9
$UCSXDIR
 10
1.0
 20
0.0
 30
0.0
  9
$UCSYDIR
 10
0.0
 20
1.0
 30
0.0
  9
$UCSORTHOREF
  2

  9
$UCSORTHOVIEW
 70
     0
  9
$UCSORGTOP
 10
0.0
 20
0.0
 30
0.0
  9
$UCSORGBOTTOM
 10
0.0
 20
0.0
 30
0.0
  9
$UCSORGLEFT
 10
0.0
 20
0.0
 30
0.0
  9
$UCSORGRIGHT
 10
0.0
 20
0.0
 30
0.0
  9
$UCSORGFRONT
 10
0.0
 20
0.0
 30
0.0
  9
$UCSORGBACK
 10
0.0
 20
0.0
 30
0.0
  9
$PUCSBASE
  2

  9
$PUCSNAME
  2

  9
$PUCSORG
 10
0.0
 20
0.0
 30
0.0
  9
$PUCSXDIR
 10
1.0
 20
0.0
 30
0.0
  9
$PUCSYDIR
 10
0.0
 20
1.0
 30
0.0
  9
$PUCSORTHOREF
  2

  9
$PUCSORTHOVIEW
 70
     0
  9
$PUCSORGTOP
 10
0.0
 20
0.0
 30
0.0
  9
$PUCSORGBOTTOM
 10
0.0
 20
0.0
 30
0.0
  9
$PUCSORGLEFT
 10
0.0
 20
0.0
 30
0.0
  9
$PUCSORGRIGHT
 10
0.0
 20
0.0
 30
0.0
  9
$PUCSORGFRONT
 10
0.0
 20
0.0
 30
0.0
  9
$PUCSORGBACK
 10
0.0
 20
0.0
 30
0.0
  9
$USERI1
 70
     0
  9
$USERI2
 70
     0
  9
$USERI3
 70
     0
  9
$USERI4
 70
     0
  9
$USERI5
 70
     0
  9
$USERR1
 40
0.0
  9
$USERR2
 40
0.0
  9
$USERR3
 40
0.0
  9
$USERR4
 40
0.0
  9
$USERR5
 40
0.0
  9
$WORLDVIEW
 70
     1
  9
$SHADEDGE
 70
     3
  9
$SHADEDIF
 70
    70
  9
$TILEMODE
 70
     1
  9
$MAXACTVP
 70
    64
  9
$PINSBASE
 10
0.0
 20
0.0
 30
0.0
  9
$PLIMCHECK
 70
     0
  9
$PEXTMIN
 10
1.000000000000000E+20
 20
1.000000000000000E+20
 30
1.000000000000000E+20
  9
$PEXTMAX
 10
-1.000000000000000E+20
 20
-1.000000000000000E+20
 30
-1.000000000000000E+20
  9
$PLIMMIN
 10
0.0
 20
0.0
  9
$PLIMMAX
 10
0.0
 20
0.0
  9
$UNITMODE
 70
     0
  9
$VISRETAIN
 70
     1
  9
$PLINEGEN
 70
     0
  9
$PSLTSCALE
 70
     1
  9
$TREEDEPTH
 70
  3020
  9
$CMLSTYLE
  2
Standard
  9
$CMLJUST
 70
     0
  9
$CMLSCALE
 40
20.0
  9
$PROXYGRAPHICS
 70
     1
  9
$MEASUREMENT
 70
     1
  9
$CELWEIGHT
370
    -1
  9
$ENDCAPS
280
     0
  9
$JOINSTYLE
280
     0
  9
$LWDISPLAY
290
     0
  9
$INSUNITS
 70
     4
  9
$HYPERLINKBASE
  1

  9
$STYLESHEET
  1

  9
$XEDIT
290
     1
  9
$CEPSNTYPE
380
     0
  9
$PSTYLEMODE
290
     1
  9
$FINGERPRINTGUID
  2
{EC6BB858-51AA-46EC-B484-6C9CC7AB3E2E}
  9
$VERSIONGUID
  2
{FAEB1C32-E019-11D5-929B-00C0DF256EC4}
  9
$EXTNAMES
290
     1
  9
$PSVPSCALE
 40
0.0
  9
$OLESTARTUP
290
     0
  0
ENDSEC
  0
SECTION
  2
CLASSES
  0
CLASS
  1
ACDBDICTIONARYWDFLT
  2
AcDbDictionaryWithDefault
  3
ObjectDBX Classes
 90
        0
280
     0
281
     0
  0
CLASS
  1
VISUALSTYLE
  2
AcDbVisualStyle
  3
ObjectDBX Classes
 90
     4095
280
     0
281
     0
  0
CLASS
  1
TABLESTYLE
  2
AcDbTableStyle
  3
ObjectDBX Classes
 90
     4095
280
     0
281
     0
  0
CLASS
  1
DICTIONARYVAR
  2
AcDbDictionaryVar
  3
ObjectDBX Classes
 90
        0
280
     0
281
     0
  0
CLASS
  1
SCALE
  2
AcDbScale
  3
ObjectDBX Classes
 90
     1153
280
     0
281
     0
  0
CLASS
  1
CELLSTYLEMAP
  2
AcDbCellStyleMap
  3
ObjectDBX Classes
 90
     1152
280
     0
281
     0
  0
CLASS
  1
RASTERVARIABLES
  2
AcDbRasterVariables
  3
ISM
 90
        0
280
     0
281
     0
  0
CLASS
  1
MATERIAL
  2
AcDbMaterial
  3
ObjectDBX Classes
 90
     1153
280
     0
281
     0
  0
CLASS
  1
MLEADERSTYLE
  2
AcDbMLeaderStyle
  3
ACDB_MLEADERSTYLE_CLASS
 90
     4095
280
     0
281
     0
  0
CLASS
  1
SUN
  2
AcDbSun
  3
SCENEOE
 90
     1153
280
     0
281
     0
  0
CLASS
  1
DIMASSOC
  2
AcDbDimAssoc
  3
"AcDbDimAssoc|Product Desc:     AcDim ARX App For Dimension|Company:          Autodesk, Inc.|WEB Address:      www.autodesk.com"
 90
        0
280
     0
281
     0
  0
CLASS
  1
ACDBPLACEHOLDER
  2
AcDbPlaceHolder
  3
ObjectDBX Classes
 90
        0
280
     0
281
     0
  0
CLASS
  1
LAYOUT
  2
AcDbLayout
  3
ObjectDBX Classes
 90
        0
280
     0
281
     0
  0
ENDSEC
  0
SECTION
  2
TABLES
  0
TABLE
  2
VPORT
  5
8
330
0
100
AcDbSymbolTable
 70
     1
  0
VPORT
  5
29
330
8
100
AcDbSymbolTableRecord
100
AcDbViewportTableRecord
  2
*Active
 70
     0
 10
0.0
 20
0.0
 11
1.0
 21
1.0
 12
643.4347706486021
 22
279.5202558461901
 13
0.0
 23
0.0
 14
10.0
 24
10.0
 15
10.0
 25
10.0
 16
0.0
 26
0.0
 36
1.0
 17
-134.1869158878499
 27
0.0
 37
0.0
 40
1175.537109375
 41
1.799736495388669
 42
50.0
 43
0.0
 44
0.0
 50
0.0
 51
0.0
 71
    16
 72
  1000
 73
     1
 74
     3
 75
     0
 76
     0
 77
     0
 78
     0
281
     0
 65
     1
110
0.0
120
0.0
130
0.0
111
1.0
121
0.0
131
0.0
112
0.0
122
1.0
132
0.0
 79
     0
146
0.0
  0
ENDTAB
  0
TABLE
  2
LTYPE
  5
5
330
0
100
AcDbSymbolTable
 70
     2
  0
LTYPE
  5
14
330
5
100
AcDbSymbolTableRecord
100
AcDbLinetypeTableRecord
  2
ByBlock
 70
     0
  3

 72
    65
 73
     0
 40
0.0
  0
LTYPE
  5
15
330
5
100
AcDbSymbolTableRecord
100
AcDbLinetypeTableRecord
  2
ByLayer
 70
     0
  3

 72
    65
 73
     0
 40
0.0
  0
LTYPE
  5
16
330
5
100
AcDbSymbolTableRecord
100
AcDbLinetypeTableRecord
  2
Continuous
 70
     0
  3
Solid line
 72
    65
 73
     0
 40
0.0
  0
LTYPE
  5
E8
330
5
100
AcDbSymbolTableRecord
100
AcDbLinetypeTableRecord
  2
DASHED
 70
     0
  3
Dashed __  __  __  __  __  __  __  __  __  __  
 72
    65
 73
     2
 40
19.05
 49
12.7
 74
     0
 49
-6.35
 74
     0
  0
ENDTAB
  0
TABLE
  2
LAYER
  5
2
330
0
100
AcDbSymbolTable
 70
     2
  0
LAYER
  5
10
330
2
100
AcDbSymbolTableRecord
100
AcDbLayerTableRecord
  2
0
 70
     0
 62
     7
  6
Continuous
370
    -3
390
F
  0
LAYER
  5
83
330
2
100
AcDbSymbolTableRecord
100
AcDbLayerTableRecord
  2
Defpoints
 70
     0
 62
     7
  6
Continuous
290
     0
370
    -3
390
F
  0
ENDTAB
  0
TABLE
  2
STYLE
  5
3
330
0
100
AcDbSymbolTable
 70
     1
  0
STYLE
  5
11
330
3
100
AcDbSymbolTableRecord
100
AcDbTextStyleTableRecord
  2
Standard
 70
     0
 40
0.0
 41
1.0
 50
0.0
 71
     0
 42
2.5
  3
arial.ttf
  4

1001
ACAD
1000
Arial
1071
        0
  0
ENDTAB
  0
TABLE
  2
VIEW
  5
6
330
0
100
AcDbSymbolTable
 70
     0
  0
ENDTAB
  0
TABLE
  2
UCS
  5
7
330
0
100
AcDbSymbolTable
 70
     0
  0
ENDTAB
  0
TABLE
  2
APPID
  5
9
330
0
100
AcDbSymbolTable
 70
     2
  0
APPID
  5
12
330
9
100
AcDbSymbolTableRecord
100
AcDbRegAppTableRecord
  2
ACAD
 70
     0
  0
APPID
  5
B1
330
9
100
AcDbSymbolTableRecord
100
AcDbRegAppTableRecord
  2
ACAD_DSTYLE_DIMRADIAL_EXTENSION
 70
     0
  0
ENDTAB
  0
TABLE
  2
DIMSTYLE
  5
A
330
0
100
AcDbSymbolTable
 70
     1
100
AcDbDimStyleTable
  0
DIMSTYLE
105
27
102
{ACAD_REACTORS
330
93
330
A2
330
E7
330
113
330
114
330
123
330
132
330
159
330
177
330
184
330
192
330
1A1
330
1DA
330
27F
330
28E
330
29D
330
2CA
330
361
102
}
330
A
100
AcDbSymbolTableRecord
100
AcDbDimStyleTableRecord
  2
ISO-25
 70
     0
 41
2.5
 42
0.625
 43
3.75
 44
1.25
 73
     0
 74
     0
 77
     1
 78
     8
140
2.5
141
2.5
143
0.03937007874016
147
0.625
171
     3
172
     1
178
     0
271
     2
272
     2
274
     3
278
    44
283
     0
284
     8
340
11
  0
ENDTAB
  0
TABLE
  2
BLOCK_RECORD
  5
1
330
0
100
AcDbSymbolTable
 70
    33
  0
BLOCK_RECORD
  5
1F
330
1
100
AcDbSymbolTableRecord
100
AcDbBlockTableRecord
  2
*Model_Space
340
22
  0
BLOCK_RECORD
  5
1B
330
1
100
AcDbSymbolTableRecord
100
AcDbBlockTableRecord
  2
*Paper_Space
340
1E
  0
BLOCK_RECORD
  5
23
330
1
100
AcDbSymbolTableRecord
100
AcDbBlockTableRecord
  2
*Paper_Space0
340
26
  0
BLOCK_RECORD
  5
96
330
1
100
AcDbSymbolTableRecord
100
AcDbBlockTableRecord
  2
*D2
340
0
  0
BLOCK_RECORD
  5
A5
330
1
100
AcDbSymbolTableRecord
100
AcDbBlockTableRecord
  2
*D3
340
0
  0
BLOCK_RECORD
  5
117
330
1
100
AcDbSymbolTableRecord
100
AcDbBlockTableRecord
  2
*D7
340
0
  0
BLOCK_RECORD
  5
126
330
1
100
AcDbSymbolTableRecord
100
AcDbBlockTableRecord
  2
*D8
340
0
  0
BLOCK_RECORD
  5
135
330
1
100
AcDbSymbolTableRecord
100
AcDbBlockTableRecord
  2
*D9
340
0
  0
BLOCK_RECORD
  5
15C
330
1
100
AcDbSymbolTableRecord
100
AcDbBlockTableRecord
  2
*D11
340
0
  0
BLOCK_RECORD
  5
17A
330
1
100
AcDbSymbolTableRecord
100
AcDbBlockTableRecord
  2
*D13
340
0
  0
BLOCK_RECORD
  5
187
330
1
100
AcDbSymbolTableRecord
100
AcDbBlockTableRecord
  2
*D14
340
0
  0
BLOCK_RECORD
  5
195
330
1
100
AcDbSymbolTableRecord
100
AcDbBlockTableRecord
  2
*D15
340
0
  0
BLOCK_RECORD
  5
1A4
330
1
100
AcDbSymbolTableRecord
100
AcDbBlockTableRecord
  2
*D16
340
0
  0
BLOCK_RECORD
  5
282
330
1
100
AcDbSymbolTableRecord
100
AcDbBlockTableRecord
  2
*D20
340
0
  0
BLOCK_RECORD
  5
291
330
1
100
AcDbSymbolTableRecord
100
AcDbBlockTableRecord
  2
*D21
340
0
  0
BLOCK_RECORD
  5
2A0
330
1
100
AcDbSymbolTableRecord
100
AcDbBlockTableRecord
  2
*D22
340
0
  0
BLOCK_RECORD
  5
2CD
330
1
100
AcDbSymbolTableRecord
100
AcDbBlockTableRecord
  2
*D25
340
0
  0
BLOCK_RECORD
  5
364
330
1
100
AcDbSymbolTableRecord
100
AcDbBlockTableRecord
  2
*D32
340
0
  0
ENDTAB
  0
ENDSEC
  0
SECTION
  2
BLOCKS
  0
BLOCK
  5
20
330
1F
100
AcDbEntity
  8
0
100
AcDbBlockBegin
  2
*Model_Space
 70
     0
 10
0.0
 20
0.0
 30
0.0
  3
*Model_Space
  1
*Model_Space
  0
ENDBLK
  5
21
330
1F
100
AcDbEntity
  8
0
100
AcDbBlockEnd
  0
BLOCK
  5
1C
330
1B
100
AcDbEntity
 67
     1
  8
0
100
AcDbBlockBegin
  2
*Paper_Space
 70
     0
 10
0.0
 20
0.0
 30
0.0
  3
*Paper_Space
  1
*Paper_Space
  0
ENDBLK
  5
1D
330
1B
100
AcDbEntity
 67
     1
  8
0
100
AcDbBlockEnd
  0
BLOCK
  5
24
330
23
100
AcDbEntity
  8
0
100
AcDbBlockBegin
  2
*Paper_Space0
 70
     0
 10
0.0
 20
0.0
 30
0.0
  3
*Paper_Space0
  1
*Paper_Space0
  0
ENDBLK
  5
25
330
23
100
AcDbEntity
  8
0
100
AcDbBlockEnd
  0
BLOCK
  5
97
330
96
100
AcDbEntity
  8
0
100
AcDbBlockBegin
  2
*D2
 70
     1
 10
0.0
 20
0.0
 30
0.0
  3
*D2
  1
*D2
  0
LINE
  5
99
330
96
100
AcDbEntity
  8
0
 62
     0
370
    -2
100
AcDbLine
 10
90.89671936758893
 20
477.4867588932805
 30
0.0
 11
90.89671936758896
 21
602.9565198091652
 31
0.0
  0
LINE
  5
9A
330
96
100
AcDbEntity
  8
0
 62
     0
370
    -2
100
AcDbLine
 10
820.896719367589
 20
477.4867588932805
 30
0.0
 11
820.896719367589
 21
602.9565198091652
 31
0.0
  0
LINE
  5
9B
330
96
100
AcDbEntity
  8
0
 62
     0
370
    -2
100
AcDbLine
 10
115.896719367589
 20
590.4565198091652
 30
0.0
 11
795.896719367589
 21
590.4565198091652
 31
0.0
  0
SOLID
  5
9C
330
96
100
AcDbEntity
  8
0
 62
     0
100
AcDbTrace
 10
115.896719367589
 20
594.6231864758319
 30
0.0
 11
115.896719367589
 21
586.2898531424986
 31
0.0
 12
90.89671936758896
 22
590.4565198091652
 32
0.0
 13
90.89671936758896
 23
590.4565198091652
 33
0.0
  0
SOLID
  5
9D
330
96
100
AcDbEntity
  8
0
 62
     0
100
AcDbTrace
 10
795.896719367589
 20
586.2898531424986
 30
0.0
 11
795.896719367589
 21
594.6231864758319
 31
0.0
 12
820.896719367589
 22
590.4565198091652
 32
0.0
 13
820.896719367589
 23
590.4565198091652
 33
0.0
  0
MTEXT
  5
9E
330
96
100
AcDbEntity
  8
0
 62
     0
100
AcDbMText
 10
430.896719367589
 20
609.4690198091653
 30
0.0
 40
25.0
 41
0.0
 71
     5
 72
     1
  1
730
 73
     1
 44
1.0
  0
POINT
  5
9F
330
96
100
AcDbEntity
  8
Defpoints
 62
     0
100
AcDbPoint
 10
90.89671936758893
 20
471.2367588932805
 30
0.0
  0
POINT
  5
A0
330
96
100
AcDbEntity
  8
Defpoints
 62
     0
100
AcDbPoint
 10
820.896719367589
 20
471.2367588932805
 30
0.0
  0
POINT
  5
A1
330
96
100
AcDbEntity
  8
Defpoints
 62
     0
100
AcDbPoint
 10
820.896719367589
 20
590.4565198091652
 30
0.0
  0
ENDBLK
  5
98
330
96
100
AcDbEntity
  8
0
100
AcDbBlockEnd
  0
BLOCK
  5
A6
330
A5
100
AcDbEntity
  8
0
100
AcDbBlockBegin
  2
*D3
 70
     1
 10
0.0
 20
0.0
 30
0.0
  3
*D3
  1
*D3
  0
LINE
  5
A8
330
A5
100
AcDbEntity
  8
0
 62
     0
370
    -2
100
AcDbLine
 10
104.6467193675889
 20
491.2367588932805
 30
0.0
 11
-17.07485996170935
 21
491.2367588932805
 31
0.0
  0
LINE
  5
A9
330
A5
100
AcDbEntity
  8
0
 62
     0
370
    -2
100
AcDbLine
 10
104.646719367589
 20
46.23675889328067
 30
0.0
 11
-17.07485996170938
 21
46.23675889328067
 31
0.0
  0
LINE
  5
AA
330
A5
100
AcDbEntity
  8
0
 62
     0
370
    -2
100
AcDbLine
 10
-4.574859961709353
 20
466.2367588932805
 30
0.0
 11
-4.574859961709377
 21
71.23675889328067
 31
0.0
  0
SOLID
  5
AB
330
A5
100
AcDbEntity
  8
0
 62
     0
100
AcDbTrace
 10
-0.4081932950426861
 20
466.2367588932805
 30
0.0
 11
-8.74152662837602
 21
466.2367588932805
 31
0.0
 12
-4.574859961709351
 22
491.2367588932805
 32
0.0
 13
-4.574859961709351
 23
491.2367588932805
 33
0.0
  0
SOLID
  5
AC
330
A5
100
AcDbEntity
  8
0
 62
     0
100
AcDbTrace
 10
-8.741526628376043
 20
71.23675889328067
 30
0.0
 11
-0.4081932950427101
 21
71.23675889328067
 31
0.0
 12
-4.574859961709379
 22
46.23675889328067
 32
0.0
 13
-4.574859961709379
 23
46.23675889328067
 33
0.0
  0
MTEXT
  5
AD
330
A5
100
AcDbEntity
  8
0
 62
     0
100
AcDbMText
 10
-23.53735996170934
 20
268.7367588932806
 30
0.0
 40
25.0
 41
0.0
 71
     5
 72
     1
  1
445
 11
6.187310339484022E-17
 21
1.0
 31
0.0
 73
     1
 44
1.0
  0
POINT
  5
AE
330
A5
100
AcDbEntity
  8
Defpoints
 62
     0
100
AcDbPoint
 10
110.8967193675889
 20
491.2367588932805
 30
0.0
  0
POINT
  5
AF
330
A5
100
AcDbEntity
  8
Defpoints
 62
     0
100
AcDbPoint
 10
110.896719367589
 20
46.23675889328067
 30
0.0
  0
POINT
  5
B0
330
A5
100
AcDbEntity
  8
Defpoints
 62
     0
100
AcDbPoint
 10
-4.574859961709379
 20
46.23675889328067
 30
0.0
  0
ENDBLK
  5
A7
330
A5
100
AcDbEntity
  8
0
100
AcDbBlockEnd
  0
BLOCK
  5
118
330
117
100
AcDbEntity
  8
0
100
AcDbBlockBegin
  2
*D7
 70
     1
 10
0.0
 20
0.0
 30
0.0
  3
*D7
  1
*D7
  0
LINE
  5
11A
330
117
100
AcDbEntity
  8
0
 62
     0
370
    -2
100
AcDbLine
 10
827.7567193675887
 20
501.2367588932806
 30
0.0
 11
954.6902951545349
 21
501.2367588932806
 31
0.0
  0
LINE
  5
11B
330
117
100
AcDbEntity
  8
0
 62
     0
370
    -2
100
AcDbLine
 10
832.1432625120927
 20
36.23675889328069
 30
0.0
 11
954.6902951545349
 21
36.23675889328069
 31
0.0
  0
LINE
  5
11C
330
117
100
AcDbEntity
  8
0
 62
     0
370
    -2
100
AcDbLine
 10
942.1902951545349
 20
476.2367588932806
 30
0.0
 11
942.1902951545349
 21
61.23675889328069
 31
0.0
  0
SOLID
  5
11D
330
117
100
AcDbEntity
  8
0
 62
     0
100
AcDbTrace
 10
946.3569618212015
 20
476.2367588932806
 30
0.0
 11
938.0236284878682
 21
476.2367588932806
 31
0.0
 12
942.1902951545349
 22
501.2367588932806
 32
0.0
 13
942.1902951545349
 23
501.2367588932806
 33
0.0
  0
SOLID
  5
11E
330
117
100
AcDbEntity
  8
0
 62
     0
100
AcDbTrace
 10
938.0236284878682
 20
61.23675889328069
 30
0.0
 11
946.3569618212015
 21
61.23675889328069
 31
0.0
 12
942.1902951545349
 22
36.23675889328069
 32
0.0
 13
942.1902951545349
 23
36.23675889328069
 33
0.0
  0
MTEXT
  5
11F
330
117
100
AcDbEntity
  8
0
 62
     0
100
AcDbMText
 10
923.1777951545348
 20
268.7367588932806
 30
0.0
 40
25.0
 41
0.0
 71
     5
 72
     1
  1
465
 11
0.0
 21
1.0
 31
0.0
 73
     1
 44
1.0
  0
POINT
  5
120
330
117
100
AcDbEntity
  8
Defpoints
 62
     0
100
AcDbPoint
 10
821.5067193675887
 20
501.2367588932806
 30
0.0
  0
POINT
  5
121
330
117
100
AcDbEntity
  8
Defpoints
 62
     0
100
AcDbPoint
 10
825.8932625120927
 20
36.23675889328069
 30
0.0
  0
POINT
  5
122
330
117
100
AcDbEntity
  8
Defpoints
 62
     0
100
AcDbPoint
 10
942.1902951545349
 20
36.23675889328069
 30
0.0
  0
ENDBLK
  5
119
330
117
100
AcDbEntity
  8
0
100
AcDbBlockEnd
  0
BLOCK
  5
127
330
126
100
AcDbEntity
  8
0
100
AcDbBlockBegin
  2
*D8
 70
     1
 10
0.0
 20
0.0
 30
0.0
  3
*D8
  1
*D8
  0
LINE
  5
129
330
126
100
AcDbEntity
  8
0
 62
     0
370
    -2
100
AcDbLine
 10
80.89326251209286
 20
34.98675889328067
 30
0.0
 11
80.89326251209286
 21
-47.38912814822913
 31
0.0
  0
LINE
  5
12A
330
126
100
AcDbEntity
  8
0
 62
     0
370
    -2
100
AcDbLine
 10
830.8932625120927
 20
34.98675889328069
 30
0.0
 11
830.8932625120927
 21
-47.38912814822913
 31
0.0
  0
LINE
  5
12B
330
126
100
AcDbEntity
  8
0
 62
     0
370
    -2
100
AcDbLine
 10
105.8932625120929
 20
-34.88912814822913
 30
0.0
 11
805.8932625120927
 21
-34.88912814822913
 31
0.0
  0
SOLID
  5
12C
330
126
100
AcDbEntity
  8
0
 62
     0
100
AcDbTrace
 10
105.8932625120929
 20
-30.72246148156247
 30
0.0
 11
105.8932625120929
 21
-39.0557948148958
 31
0.0
 12
80.89326251209286
 22
-34.88912814822913
 32
0.0
 13
80.89326251209286
 23
-34.88912814822913
 33
0.0
  0
SOLID
  5
12D
330
126
100
AcDbEntity
  8
0
 62
     0
100
AcDbTrace
 10
805.8932625120927
 20
-39.0557948148958
 30
0.0
 11
805.8932625120927
 21
-30.72246148156247
 31
0.0
 12
830.8932625120927
 22
-34.88912814822913
 32
0.0
 13
830.8932625120927
 23
-34.88912814822913
 33
0.0
  0
MTEXT
  5
12E
330
126
100
AcDbEntity
  8
0
 62
     0
100
AcDbMText
 10
434.204298837681
 20
-15.87662814822913
 30
0.0
 40
25.0
 41
0.0
 71
     5
 72
     1
  1
750
 73
     1
 44
1.0
  0
POINT
  5
12F
330
126
100
AcDbEntity
  8
Defpoints
 62
     0
100
AcDbPoint
 10
80.89326251209286
 20
41.23675889328067
 30
0.0
  0
POINT
  5
130
330
126
100
AcDbEntity
  8
Defpoints
 62
     0
100
AcDbPoint
 10
830.8932625120927
 20
41.23675889328069
 30
0.0
  0
POINT
  5
131
330
126
100
AcDbEntity
  8
Defpoints
 62
     0
100
AcDbPoint
 10
830.8932625120927
 20
-34.88912814822913
 30
0.0
  0
ENDBLK
  5
128
330
126
100
AcDbEntity
  8
0
100
AcDbBlockEnd
  0
BLOCK
  5
136
330
135
100
AcDbEntity
  8
0
100
AcDbBlockBegin
  2
*D9
 70
     1
 10
0.0
 20
0.0
 30
0.0
  3
*D9
  1
*D9
  0
LINE
  5
138
330
135
100
AcDbEntity
  8
0
 62
     0
370
    -2
100
AcDbLine
 10
845.9363569801498
 20
518.5588189269007
 30
0.0
 11
898.0149974396513
 21
576.5589715809238
 31
0.0
  0
MTEXT
  5
139
330
135
100
AcDbEntity
  8
0
 62
     0
100
AcDbMText
 10
866.2175644586737
 20
569.5286595629383
 30
0.0
 40
25.0
 41
0.0
 71
     5
 72
     1
  1
R5
 11
0.6681031489352344
 21
0.7440686677873382
 31
0.0
 73
     1
 44
1.0
  0
LINE
  5
13A
330
135
100
AcDbEntity
  8
0
 62
     0
370
    -2
100
AcDbLine
 10
825.8932625120927
 20
496.2367588932806
 30
0.0
 11
829.2337782567689
 21
499.9571022322173
 31
0.0
  0
SOLID
  5
13B
330
135
100
AcDbEntity
  8
0
 62
     0
100
AcDbTrace
 10
842.8360708643692
 20
521.3425820474641
 30
0.0
 11
849.0366430959303
 21
515.7750558063373
 31
0.0
 12
829.2337782567689
 22
499.9571022322173
 32
0.0
 13
829.2337782567689
 23
499.9571022322173
 33
0.0
  0
POINT
  5
13C
330
135
100
AcDbEntity
  8
Defpoints
 62
     0
100
AcDbPoint
 10
829.2337782567689
 20
499.9571022322173
 30
0.0
  0
POINT
  5
13D
330
135
100
AcDbEntity
  8
Defpoints
 62
     0
100
AcDbPoint
 10
825.8932625120927
 20
496.2367588932806
 30
0.0
  0
ENDBLK
  5
137
330
135
100
AcDbEntity
  8
0
100
AcDbBlockEnd
  0
BLOCK
  5
15D
330
15C
100
AcDbEntity
  8
0
100
AcDbBlockBegin
  2
*D11
 70
     1
 10
0.0
 20
0.0
 30
0.0
  3
*D11
  1
*D11
  0
LINE
  5
15F
330
15C
100
AcDbEntity
  8
0
 62
     0
370
    -2
100
AcDbLine
 10
109.8932625120929
 20
414.4867588932807
 30
0.0
 11
109.8932625120929
 21
555.3229764257893
 31
0.0
  0
LINE
  5
160
330
15C
100
AcDbEntity
  8
0
 62
     0
370
    -2
100
AcDbLine
 10
801.8932625120927
 20
414.4867588932806
 30
0.0
 11
801.8932625120927
 21
555.3229764257893
 31
0.0
  0
LINE
  5
161
330
15C
100
AcDbEntity
  8
0
 62
     0
370
    -2
100
AcDbLine
 10
134.8932625120929
 20
542.8229764257893
 30
0.0
 11
776.8932625120927
 21
542.8229764257893
 31
0.0
  0
SOLID
  5
162
330
15C
100
AcDbEntity
  8
0
 62
     0
100
AcDbTrace
 10
134.8932625120929
 20
546.9896430924559
 30
0.0
 11
134.8932625120929
 21
538.6563097591227
 31
0.0
 12
109.8932625120929
 22
542.8229764257893
 32
0.0
 13
109.8932625120929
 23
542.8229764257893
 33
0.0
  0
SOLID
  5
163
330
15C
100
AcDbEntity
  8
0
 62
     0
100
AcDbTrace
 10
776.8932625120927
 20
538.6563097591227
 30
0.0
 11
776.8932625120927
 21
546.9896430924559
 31
0.0
 12
801.8932625120927
 22
542.8229764257893
 32
0.0
 13
801.8932625120927
 23
542.8229764257893
 33
0.0
  0
MTEXT
  5
164
330
15C
100
AcDbEntity
  8
0
 62
     0
100
AcDbMText
 10
468.9230710113469
 20
561.8354764257894
 30
0.0
 40
25.0
 41
0.0
 71
     5
 72
     1
  1
692
 73
     1
 44
1.0
  0
POINT
  5
165
330
15C
100
AcDbEntity
  8
Defpoints
 62
     0
100
AcDbPoint
 10
109.8932625120929
 20
408.2367588932807
 30
0.0
  0
POINT
  5
166
330
15C
100
AcDbEntity
  8
Defpoints
 62
     0
100
AcDbPoint
 10
801.8932625120927
 20
408.2367588932806
 30
0.0
  0
POINT
  5
167
330
15C
100
AcDbEntity
  8
Defpoints
 62
     0
100
AcDbPoint
 10
801.8932625120927
 20
542.8229764257893
 30
0.0
  0
ENDBLK
  5
15E
330
15C
100
AcDbEntity
  8
0
100
AcDbBlockEnd
  0
BLOCK
  5
17B
330
17A
100
AcDbEntity
  8
0
100
AcDbBlockBegin
  2
*D13
 70
     1
 10
0.0
 20
0.0
 30
0.0
  3
*D13
  1
*D13
  0
LINE
  5
17D
330
17A
100
AcDbEntity
  8
0
 62
     0
370
    -2
100
AcDbLine
 10
753.1528338075053
 20
116.6637060278375
 30
0.0
 11
687.4366251528799
 21
188.3162045541397
 31
0.0
  0
MTEXT
  5
17E
330
17A
100
AcDbEntity
  8
0
 62
     0
100
AcDbMText
 10
725.8575016072022
 20
174.5530630166234
 30
0.0
 40
25.0
 41
0.0
 71
     5
 72
     1
  1
R19
 11
0.6759188341951697
 21
-0.7369760712399301
 31
0.0
 73
     1
 44
1.0
  0
LINE
  5
17F
330
17A
100
AcDbEntity
  8
0
 62
     0
370
    -2
100
AcDbLine
 10
782.8932625120927
 20
84.23675889328058
 30
0.0
 11
770.0508046623845
 21
98.23930424683927
 31
0.0
  0
SOLID
  5
180
330
17A
100
AcDbEntity
  8
0
 62
     0
100
AcDbTrace
 10
750.0821001773389
 20
113.8473775520243
 30
0.0
 11
756.2235674376717
 21
119.4800345036507
 31
0.0
 12
770.0508046623845
 22
98.23930424683927
 32
0.0
 13
770.0508046623845
 23
98.23930424683927
 33
0.0
  0
ARC
  5
181
330
17A
100
AcDbEntity
  8
0
 62
     0
370
    -2
100
AcDbCircle
 10
782.8932625120927
 20
84.23675889328058
 30
0.0
 40
19.00000000000002
100
AcDbArc
 50
18.93332217514551
 51
170.9353386567349
  0
POINT
  5
182
330
17A
100
AcDbEntity
  8
Defpoints
 62
     0
100
AcDbPoint
 10
770.0508046623845
 20
98.23930424683927
 30
0.0
  0
POINT
  5
183
330
17A
100
AcDbEntity
  8
Defpoints
 62
     0
100
AcDbPoint
 10
782.8932625120927
 20
84.23675889328058
 30
0.0
  0
ENDBLK
  5
17C
330
17A
100
AcDbEntity
  8
0
100
AcDbBlockEnd
  0
BLOCK
  5
188
330
187
100
AcDbEntity
  8
0
100
AcDbBlockBegin
  2
*D14
 70
     1
 10
0.0
 20
0.0
 30
0.0
  3
*D14
  1
*D14
  0
LINE
  5
18A
330
187
100
AcDbEntity
  8
0
 62
     0
370
    -2
100
AcDbLine
 10
476.9880225242832
 20
441.6526000072912
 30
0.0
 11
385.3850180571349
 21
420.4490579071698
 31
0.0
  0
LINE
  5
18B
330
187
100
AcDbEntity
  8
0
 62
     0
370
    -2
100
AcDbLine
 10
559.7985024999025
 20
460.8209177792701
 30
0.0
 11
584.1545260221435
 21
466.4586583004403
 31
0.0
  0
MTEXT
  5
18C
330
187
100
AcDbEntity
  8
0
 62
     0
100
AcDbMText
 10
414.6195275338575
 20
447.19312300871
 30
0.0
 40
25.0
 41
0.0
 71
     5
 72
     1
  1
%%c35
 11
0.9742409408896385
 21
0.2255096208468101
 31
0.0
 73
     1
 44
1.0
  0
LINE
  5
18D
330
187
100
AcDbEntity
  8
0
 62
     0
370
    -2
100
AcDbLine
 10
535.4424789776615
 20
455.1831772580998
 30
0.0
 11
501.3440460465241
 21
447.2903405284615
 31
0.0
  0
SOLID
  5
18E
330
187
100
AcDbEntity
  8
0
 62
     0
100
AcDbTrace
 10
558.8588790797074
 20
464.8802550329769
 30
0.0
 11
560.7381259200976
 21
456.7615805255633
 31
0.0
 12
535.4424789776615
 22
455.1831772580998
 32
0.0
 13
535.4424789776615
 23
455.1831772580998
 33
0.0
  0
SOLID
  5
18F
330
187
100
AcDbEntity
  8
0
 62
     0
100
AcDbTrace
 10
477.9276459444782
 20
437.5932627535844
 30
0.0
 11
476.0483991040881
 21
445.711937260998
 31
0.0
 12
501.3440460465241
 22
447.2903405284615
 32
0.0
 13
501.3440460465241
 23
447.2903405284615
 33
0.0
  0
POINT
  5
190
330
187
100
AcDbEntity
  8
Defpoints
 62
     0
100
AcDbPoint
 10
501.3440460465241
 20
447.2903405284615
 30
0.0
  0
POINT
  5
191
330
187
100
AcDbEntity
  8
Defpoints
 62
     0
100
AcDbPoint
 10
535.4424789776615
 20
455.1831772580998
 30
0.0
  0
ENDBLK
  5
189
330
187
100
AcDbEntity
  8
0
100
AcDbBlockEnd
  0
BLOCK
  5
196
330
195
100
AcDbEntity
  8
0
100
AcDbBlockBegin
  2
*D15
 70
     1
 10
0.0
 20
0.0
 30
0.0
  3
*D15
  1
*D15
  0
LINE
  5
198
330
195
100
AcDbEntity
  8
0
 62
     0
370
    -2
100
AcDbLine
 10
524.6432625120929
 20
451.2367588932806
 30
0.0
 11
607.2491332643115
 21
451.2367588932806
 31
0.0
  0
LINE
  5
199
330
195
100
AcDbEntity
  8
0
 62
     0
370
    -2
100
AcDbLine
 10
492.1432625120927
 20
412.2367588932806
 30
0.0
 11
607.2491332643115
 21
412.2367588932806
 31
0.0
  0
LINE
  5
19A
330
195
100
AcDbEntity
  8
0
 62
     0
370
    -2
100
AcDbLine
 10
594.7491332643115
 20
451.2367588932806
 30
0.0
 11
594.7491332643115
 21
412.2367588932806
 31
0.0
  0
LINE
  5
19B
330
195
100
AcDbEntity
  8
0
 62
     0
370
    -2
100
AcDbLine
 10
594.7491332643115
 20
476.2367588932806
 30
0.0
 11
594.7491332643115
 21
501.2367588932806
 31
0.0
  0
LINE
  5
19C
330
195
100
AcDbEntity
  8
0
 62
     0
370
    -2
100
AcDbLine
 10
594.7491332643115
 20
387.2367588932806
 30
0.0
 11
594.7491332643115
 21
362.2367588932806
 31
0.0
  0
SOLID
  5
19D
330
195
100
AcDbEntity
  8
0
 62
     0
100
AcDbTrace
 10
590.5824665976448
 20
476.2367588932806
 30
0.0
 11
598.9157999309781
 21
476.2367588932806
 31
0.0
 12
594.7491332643115
 22
451.2367588932806
 32
0.0
 13
594.7491332643115
 23
451.2367588932806
 33
0.0
  0
SOLID
  5
19E
330
195
100
AcDbEntity
  8
0
 62
     0
100
AcDbTrace
 10
598.9157999309781
 20
387.2367588932806
 30
0.0
 11
590.5824665976448
 21
387.2367588932806
 31
0.0
 12
594.7491332643115
 22
412.2367588932806
 32
0.0
 13
594.7491332643115
 23
412.2367588932806
 33
0.0
  0
MTEXT
  5
19F
330
195
100
AcDbEntity
  8
0
 62
     0
100
AcDbMText
 10
575.7366332643114
 20
431.6050910502952
 30
0.0
 40
25.0
 41
0.0
 71
     5
 72
     1
  1
39
 11
0.0
 21
1.0
 31
0.0
 73
     1
 44
1.0
  0
POINT
  5
1A0
330
195
100
AcDbEntity
  8
Defpoints
 62
     0
100
AcDbPoint
 10
518.3932625120929
 20
451.2367588932806
 30
0.0
  0
POINT
  5
2D9
330
195
100
AcDbEntity
  8
Defpoints
 62
     0
100
AcDbPoint
 10
485.8932625120927
 20
412.2367588932806
 30
0.0
  0
POINT
  5
2DA
330
195
100
AcDbEntity
  8
Defpoints
 62
     0
100
AcDbPoint
 10
594.7491332643115
 20
412.2367588932806
 30
0.0
  0
ENDBLK
  5
197
330
195
100
AcDbEntity
  8
0
100
AcDbBlockEnd
  0
BLOCK
  5
1A5
330
1A4
100
AcDbEntity
  8
0
100
AcDbBlockBegin
  2
*D16
 70
     1
 10
0.0
 20
0.0
 30
0.0
  3
*D16
  1
*D16
  0
LINE
  5
1A7
330
1A4
100
AcDbEntity
  8
0
 62
     0
370
    -2
100
AcDbLine
 10
518.3932625120929
 20
413.1117588932806
 30
0.0
 11
518.3932625120929
 21
645.5249280068169
 31
0.0
  0
LINE
  5
1A8
330
1A4
100
AcDbEntity
  8
0
 62
     0
370
    -2
100
AcDbLine
 10
80.89326251209286
 20
502.4867588932806
 30
0.0
 11
80.89326251209286
 21
645.5249280068169
 31
0.0
  0
LINE
  5
1A9
330
1A4
100
AcDbEntity
  8
0
 62
     0
370
    -2
100
AcDbLine
 10
493.3932625120929
 20
633.0249280068169
 30
0.0
 11
105.8932625120929
 21
633.0249280068169
 31
0.0
  0
SOLID
  5
1AA
330
1A4
100
AcDbEntity
  8
0
 62
     0
100
AcDbTrace
 10
493.3932625120929
 20
628.8582613401503
 30
0.0
 11
493.3932625120929
 21
637.1915946734836
 31
0.0
 12
518.3932625120929
 22
633.0249280068169
 32
0.0
 13
518.3932625120929
 23
633.0249280068169
 33
0.0
  0
SOLID
  5
1AB
330
1A4
100
AcDbEntity
  8
0
 62
     0
100
AcDbTrace
 10
105.8932625120929
 20
637.1915946734836
 30
0.0
 11
105.8932625120929
 21
628.8582613401503
 31
0.0
 12
80.89326251209286
 22
633.0249280068169
 32
0.0
 13
80.89326251209286
 23
633.0249280068169
 33
0.0
  0
MTEXT
  5
1AC
330
1A4
100
AcDbEntity
  8
0
 62
     0
100
AcDbMText
 10
238.957655991584
 20
654.287428006817
 30
0.0
 40
25.0
 41
0.0
 71
     5
 72
     1
  1
437,5
 73
     1
 44
1.0
  0
POINT
  5
1AD
330
1A4
100
AcDbEntity
  8
Defpoints
 62
     0
100
AcDbPoint
 10
518.3932625120929
 20
406.8617588932806
 30
0.0
  0
POINT
  5
1AE
330
1A4
100
AcDbEntity
  8
Defpoints
 62
     0
100
AcDbPoint
 10
80.89326251209286
 20
496.2367588932806
 30
0.0
  0
POINT
  5
1AF
330
1A4
100
AcDbEntity
  8
Defpoints
 62
     0
100
AcDbPoint
 10
80.89326251209286
 20
633.0249280068169
 30
0.0
  0
ENDBLK
  5
1A6
330
1A4
100
AcDbEntity
  8
0
100
AcDbBlockEnd
  0
BLOCK
  5
283
330
282
100
AcDbEntity
  8
0
100
AcDbBlockBegin
  2
*D20
 70
     1
 10
0.0
 20
0.0
 30
0.0
  3
*D20
  1
*D20
  0
LINE
  5
285
330
282
100
AcDbEntity
  8
0
 62
     0
370
    -2
100
AcDbLine
 10
109.8932625120929
 20
446.9867588932807
 30
0.0
 11
109.8932625120929
 21
260.4714206961162
 31
0.0
  0
LINE
  5
286
330
282
100
AcDbEntity
  8
0
 62
     0
370
    -2
100
AcDbLine
 10
466.8932625120927
 20
446.9867588932806
 30
0.0
 11
466.8932625120927
 21
260.4714206961162
 31
0.0
  0
LINE
  5
287
330
282
100
AcDbEntity
  8
0
 62
     0
370
    -2
100
AcDbLine
 10
134.8932625120929
 20
272.9714206961162
 30
0.0
 11
441.8932625120927
 21
272.9714206961162
 31
0.0
  0
SOLID
  5
288
330
282
100
AcDbEntity
  8
0
 62
     0
100
AcDbTrace
 10
134.8932625120929
 20
277.1380873627829
 30
0.0
 11
134.8932625120929
 21
268.8047540294496
 31
0.0
 12
109.8932625120929
 22
272.9714206961162
 32
0.0
 13
109.8932625120929
 23
272.9714206961162
 33
0.0
  0
SOLID
  5
289
330
282
100
AcDbEntity
  8
0
 62
     0
100
AcDbTrace
 10
441.8932625120927
 20
268.8047540294496
 30
0.0
 11
441.8932625120927
 21
277.1380873627829
 31
0.0
 12
466.8932625120927
 22
272.9714206961162
 32
0.0
 13
466.8932625120927
 23
272.9714206961162
 33
0.0
  0
MTEXT
  5
28A
330
282
100
AcDbEntity
  8
0
 62
     0
100
AcDbMText
 10
294.4626352078864
 20
291.9839206961162
 30
0.0
 40
25.0
 41
0.0
 71
     5
 72
     1
  1
357
 73
     1
 44
1.0
  0
POINT
  5
28B
330
282
100
AcDbEntity
  8
Defpoints
 62
     0
100
AcDbPoint
 10
109.8932625120929
 20
453.2367588932807
 30
0.0
  0
POINT
  5
28C
330
282
100
AcDbEntity
  8
Defpoints
 62
     0
100
AcDbPoint
 10
466.8932625120927
 20
453.2367588932806
 30
0.0
  0
POINT
  5
28D
330
282
100
AcDbEntity
  8
Defpoints
 62
     0
100
AcDbPoint
 10
466.8932625120927
 20
272.9714206961162
 30
0.0
  0
ENDBLK
  5
284
330
282
100
AcDbEntity
  8
0
100
AcDbBlockEnd
  0
BLOCK
  5
292
330
291
100
AcDbEntity
  8
0
100
AcDbBlockBegin
  2
*D21
 70
     1
 10
0.0
 20
0.0
 30
0.0
  3
*D21
  1
*D21
  0
LINE
  5
294
330
291
100
AcDbEntity
  8
0
 62
     0
370
    -2
100
AcDbLine
 10
776.6432625120927
 20
412.2367588932806
 30
0.0
 11
523.3211997168805
 21
412.2367588932806
 31
0.0
  0
LINE
  5
295
330
291
100
AcDbEntity
  8
0
 62
     0
370
    -2
100
AcDbLine
 10
776.6432625120927
 20
65.23675889328058
 30
0.0
 11
523.3211997168805
 21
65.23675889328058
 31
0.0
  0
LINE
  5
296
330
291
100
AcDbEntity
  8
0
 62
     0
370
    -2
100
AcDbLine
 10
535.8211997168805
 20
387.2367588932806
 30
0.0
 11
535.8211997168805
 21
90.23675889328058
 31
0.0
  0
SOLID
  5
297
330
291
100
AcDbEntity
  8
0
 62
     0
100
AcDbTrace
 10
539.9878663835472
 20
387.2367588932806
 30
0.0
 11
531.6545330502139
 21
387.2367588932806
 31
0.0
 12
535.8211997168805
 22
412.2367588932806
 32
0.0
 13
535.8211997168805
 23
412.2367588932806
 33
0.0
  0
SOLID
  5
298
330
291
100
AcDbEntity
  8
0
 62
     0
100
AcDbTrace
 10
531.6545330502139
 20
90.23675889328058
 30
0.0
 11
539.9878663835472
 21
90.23675889328058
 31
0.0
 12
535.8211997168805
 22
65.23675889328058
 32
0.0
 13
535.8211997168805
 23
65.23675889328058
 33
0.0
  0
MTEXT
  5
299
330
291
100
AcDbEntity
  8
0
 62
     0
100
AcDbMText
 10
516.8086997168805
 20
241.209587097726
 30
0.0
 40
25.0
 41
0.0
 71
     5
 72
     1
  1
347
 11
0.0
 21
1.0
 31
0.0
 73
     1
 44
1.0
  0
POINT
  5
29A
330
291
100
AcDbEntity
  8
Defpoints
 62
     0
100
AcDbPoint
 10
782.8932625120927
 20
412.2367588932806
 30
0.0
  0
POINT
  5
29B
330
291
100
AcDbEntity
  8
Defpoints
 62
     0
100
AcDbPoint
 10
782.8932625120927
 20
65.23675889328058
 30
0.0
  0
POINT
  5
29C
330
291
100
AcDbEntity
  8
Defpoints
 62
     0
100
AcDbPoint
 10
535.8211997168805
 20
65.2367588932806
 30
0.0
  0
ENDBLK
  5
293
330
291
100
AcDbEntity
  8
0
100
AcDbBlockEnd
  0
BLOCK
  5
2A1
330
2A0
100
AcDbEntity
  8
0
100
AcDbBlockBegin
  2
*D22
 70
     1
 10
0.0
 20
0.0
 30
0.0
  3
*D22
  1
*D22
  0
LINE
  5
2A3
330
2A0
100
AcDbEntity
  8
0
 62
     0
370
    -2
100
AcDbLine
 10
801.8932625120927
 20
386.9867588932806
 30
0.0
 11
801.8932625120927
 21
332.196055728893
 31
0.0
  0
LINE
  5
2A4
330
2A0
100
AcDbEntity
  8
0
 62
     0
370
    -2
100
AcDbLine
 10
466.8932625120927
 20
424.9867588932806
 30
0.0
 11
466.8932625120927
 21
332.196055728893
 31
0.0
  0
LINE
  5
2A5
330
2A0
100
AcDbEntity
  8
0
 62
     0
370
    -2
100
AcDbLine
 10
776.8932625120927
 20
344.696055728893
 30
0.0
 11
491.8932625120927
 21
344.696055728893
 31
0.0
  0
SOLID
  5
2A6
330
2A0
100
AcDbEntity
  8
0
 62
     0
100
AcDbTrace
 10
776.8932625120927
 20
340.5293890622263
 30
0.0
 11
776.8932625120927
 21
348.8627223955597
 31
0.0
 12
801.8932625120927
 22
344.696055728893
 32
0.0
 13
801.8932625120927
 23
344.696055728893
 33
0.0
  0
SOLID
  5
2A7
330
2A0
100
AcDbEntity
  8
0
 62
     0
100
AcDbTrace
 10
491.8932625120927
 20
348.8627223955597
 30
0.0
 11
491.8932625120927
 21
340.5293890622263
 31
0.0
 12
466.8932625120927
 22
344.696055728893
 32
0.0
 13
466.8932625120927
 23
344.696055728893
 33
0.0
  0
MTEXT
  5
2A8
330
2A0
100
AcDbEntity
  8
0
 62
     0
100
AcDbMText
 10
634.3932625120927
 20
363.708555728893
 30
0.0
 40
25.0
 41
0.0
 71
     5
 72
     1
  1
335
 73
     1
 44
1.0
  0
POINT
  5
2A9
330
2A0
100
AcDbEntity
  8
Defpoints
 62
     0
100
AcDbPoint
 10
801.8932625120927
 20
393.2367588932806
 30
0.0
  0
POINT
  5
2AA
330
2A0
100
AcDbEntity
  8
Defpoints
 62
     0
100
AcDbPoint
 10
466.8932625120927
 20
431.2367588932806
 30
0.0
  0
POINT
  5
2AB
330
2A0
100
AcDbEntity
  8
Defpoints
 62
     0
100
AcDbPoint
 10
466.8932625120927
 20
344.696055728893
 30
0.0
  0
ENDBLK
  5
2A2
330
2A0
100
AcDbEntity
  8
0
100
AcDbBlockEnd
  0
BLOCK
  5
2CE
330
2CD
100
AcDbEntity
  8
0
100
AcDbBlockBegin
  2
*D25
 70
     1
 10
0.0
 20
0.0
 30
0.0
  3
*D25
  1
*D25
  0
LINE
  5
2D0
330
2CD
100
AcDbEntity
  8
0
 62
     0
370
    -2
100
AcDbLine
 10
518.3932625120929
 20
457.4867588932806
 30
0.0
 11
518.3932625120929
 21
513.7367588932806
 31
0.0
  0
LINE
  5
2D1
330
2CD
100
AcDbEntity
  8
0
 62
     0
370
    -2
100
AcDbLine
 10
801.8932625120927
 20
399.4867588932806
 30
0.0
 11
801.8932625120927
 21
513.7367588932806
 31
0.0
  0
LINE
  5
2D2
330
2CD
100
AcDbEntity
  8
0
 62
     0
370
    -2
100
AcDbLine
 10
543.3932625120929
 20
501.2367588932806
 30
0.0
 11
776.8932625120927
 21
501.2367588932806
 31
0.0
  0
SOLID
  5
2D3
330
2CD
100
AcDbEntity
  8
0
 62
     0
100
AcDbTrace
 10
543.3932625120929
 20
505.4034255599473
 30
0.0
 11
543.3932625120929
 21
497.0700922266139
 31
0.0
 12
518.3932625120929
 22
501.2367588932806
 32
0.0
 13
518.3932625120929
 23
501.2367588932806
 33
0.0
  0
SOLID
  5
2D4
330
2CD
100
AcDbEntity
  8
0
 62
     0
100
AcDbTrace
 10
776.8932625120927
 20
497.0700922266139
 30
0.0
 11
776.8932625120927
 21
505.4034255599473
 31
0.0
 12
801.8932625120927
 22
501.2367588932806
 32
0.0
 13
801.8932625120927
 23
501.2367588932806
 33
0.0
  0
MTEXT
  5
2D5
330
2CD
100
AcDbEntity
  8
0
 62
     0
100
AcDbMText
 10
655.391935192885
 20
522.4992588932806
 30
0.0
 40
25.0
 41
0.0
 71
     5
 72
     1
  1
283,5
 73
     1
 44
1.0
  0
POINT
  5
2D6
330
2CD
100
AcDbEntity
  8
Defpoints
 62
     0
100
AcDbPoint
 10
518.3932625120929
 20
451.2367588932806
 30
0.0
  0
POINT
  5
2D7
330
2CD
100
AcDbEntity
  8
Defpoints
 62
     0
100
AcDbPoint
 10
801.8932625120927
 20
393.2367588932806
 30
0.0
  0
POINT
  5
2D8
330
2CD
100
AcDbEntity
  8
Defpoints
 62
     0
100
AcDbPoint
 10
801.8932625120927
 20
501.2367588932806
 30
0.0
  0
ENDBLK
  5
2CF
330
2CD
100
AcDbEntity
  8
0
100
AcDbBlockEnd
  0
BLOCK
  5
365
330
364
100
AcDbEntity
  8
0
100
AcDbBlockBegin
  2
*D32
 70
     1
 10
0.0
 20
0.0
 30
0.0
  3
*D32
  1
*D32
  0
LINE
  5
367
330
364
100
AcDbEntity
  8
0
 62
     0
370
    -2
100
AcDbLine
 10
73.833310269461
 20
40.71610635411535
 30
0.0
 11
-6.120699468333946
 21
-14.33761242898407
 31
0.0
  0
MTEXT
  5
368
330
364
100
AcDbEntity
  8
0
 62
     0
100
AcDbMText
 10
12.77843828661952
 20
21.75946715675656
 30
0.0
 40
25.0
 41
0.0
 71
     5
 72
     1
  1
R20
 11
0.8236313132917324
 21
0.5671256119814515
 31
0.0
 73
     1
 44
1.0
  0
LINE
  5
369
330
364
100
AcDbEntity
  8
0
 62
     0
370
    -2
100
AcDbLine
 10
110.896719367589
 20
66.23675889328067
 30
0.0
 11
94.42409310175431
 21
54.89424665365163
 31
0.0
  0
SOLID
  5
36A
330
364
100
AcDbEntity
  8
0
 62
     0
100
AcDbTrace
 10
76.19633365271704
 20
37.28430921539979
 30
0.0
 11
71.47028688620495
 21
44.1479034928309
 31
0.0
 12
94.42409310175431
 22
54.89424665365163
 32
0.0
 13
94.42409310175431
 23
54.89424665365163
 33
0.0
  0
POINT
  5
36B
330
364
100
AcDbEntity
  8
Defpoints
 62
     0
100
AcDbPoint
 10
94.42409310175431
 20
54.89424665365163
 30
0.0
  0
POINT
  5
36C
330
364
100
AcDbEntity
  8
Defpoints
 62
     0
100
AcDbPoint
 10
110.896719367589
 20
66.23675889328067
 30
0.0
  0
ENDBLK
  5
366
330
364
100
AcDbEntity
  8
0
100
AcDbBlockEnd
  0
ENDSEC
  0
SECTION
  2
ENTITIES
  0
DIMENSION
  5
93
330
1F
100
AcDbEntity
  8
0
100
AcDbDimension
  2
*D2
 10
820.896719367589
 20
590.4565198091652
 30
0.0
 11
430.896719367589
 21
590.4565198091652
 31
0.0
 70
   160
 71
     5
 42
730.0
  3
ISO-25
100
AcDbAlignedDimension
 13
90.89671936758893
 23
471.2367588932805
 33
0.0
 14
820.896719367589
 24
471.2367588932805
 34
0.0
100
AcDbRotatedDimension
1001
ACAD
1000
DSTYLE
1002
{
1070
    40
1040
10.0
1002
}
  0
DIMENSION
  5
A2
330
1F
100
AcDbEntity
  8
0
100
AcDbDimension
  2
*D3
 10
-4.574859961709379
 20
46.23675889328067
 30
0.0
 11
-23.53735996170934
 21
268.7367588932806
 31
0.0
 70
    32
 71
     5
 42
444.9999999999998
  3
ISO-25
100
AcDbAlignedDimension
 13
110.8967193675889
 23
491.2367588932805
 33
0.0
 14
110.896719367589
 24
46.23675889328067
 34
0.0
 50
90.0
100
AcDbRotatedDimension
1001
ACAD
1000
DSTYLE
1002
{
1070
    40
1040
10.0
1002
}
  0
MTEXT
  5
E6
102
{ACAD_REACTORS
330
E7
102
}
330
1F
100
AcDbEntity
  8
0
100
AcDbMText
 10
599.8484284502382
 20
621.75391742075
 30
0.0
 40
15.0
 41
251.3868087724856
 71
     7
 72
     1
  1
{INSET CUTOUT}
 73
     1
 44
1.0
1001
ACAD
1000
ACAD_MTEXT_DEFINED_HEIGHT_BEGIN
1070
    46
1040
15.0
1000
ACAD_MTEXT_DEFINED_HEIGHT_END
  0
LEADER
  5
E7
330
1F
100
AcDbEntity
  8
0
100
AcDbLeader
  3
ISO-25
 73
     0
 74
     0
 75
     1
 40
15.51
 41
152.355
 76
     4
 10
431.506719367589
 20
491.2367588932805
 30
0.0
 10
545.2917206007171
 20
605.2138342818781
 30
0.0
 10
586.2284284502382
 20
623.50391742075
 30
0.0
 10
592.2284284502382
 20
623.50391742075
 30
0.0
340
E6
213
0.0
223
1.75
233
0.0
1001
ACAD
1000
DSTYLE
1002
{
1070
    40
1040
5.0
1070
    77
1070
     0
1070
   143
1040
0.0393700787401575
1070
    41
1040
6.0
1070
    44
1040
1.0
1070
    42
1040
1.0
1070
   147
1040
1.524
1070
    73
1070
     1
1070
    74
1070
     1
1070
   140
1040
3.5
1070
   284
1070
     0
1070
    78
1070
     0
1002
}
  0
MTEXT
  5
112
102
{ACAD_REACTORS
330
113
102
}
330
1F
100
AcDbEntity
  8
0
100
AcDbMText
 10
1003.881363331402
 20
397.2418898762838
 30
0.0
 40
15.0
 41
273.1287862191817
 71
     7
 72
     1
  1
{FLUSH MOUNT REBATE 1.2MM USE ACTUAL SINK FOR EXACT DIMENSIONS}
 73
     1
 44
1.0
1001
ACAD
1000
ACAD_MTEXT_DEFINED_HEIGHT_BEGIN
1070
    46
1040
66.105
1000
ACAD_MTEXT_DEFINED_HEIGHT_END
  0
LEADER
  5
113
330
1F
100
AcDbEntity
  8
0
100
AcDbLeader
  3
ISO-25
 73
     0
 74
     0
 75
     1
 40
66.02
 41
255.4649999999999
 76
     4
 10
830.8932625120927
 20
291.2367588932806
 30
0.0
 10
964.0004130292459
 20
386.5697115015354
 30
0.0
 10
990.261363331402
 20
398.9918898762838
 30
0.0
 10
996.261363331402
 20
398.9918898762838
 30
0.0
340
112
213
0.0
223
1.75
233
0.0
1001
ACAD
1000
DSTYLE
1002
{
1070
    40
1040
5.0
1070
    77
1070
     0
1070
   143
1040
0.0393700787401575
1070
    41
1040
6.0
1070
    44
1040
1.0
1070
    42
1040
1.0
1070
   147
1040
1.524
1070
    73
1070
     1
1070
    74
1070
     1
1070
   140
1040
3.5
1070
   284
1070
     0
1070
    78
1070
     0
1002
}
  0
DIMENSION
  5
114
330
1F
100
AcDbEntity
  8
0
100
AcDbDimension
  2
*D7
 10
942.1902951545349
 20
36.23675889328069
 30
0.0
 11
923.1777951545348
 21
268.7367588932806
 31
0.0
 70
    32
 71
     5
 42
464.9999999999999
  3
ISO-25
100
AcDbAlignedDimension
 13
821.5067193675887
 23
501.2367588932806
 33
0.0
 14
825.8932625120927
 24
36.23675889328069
 34
0.0
 50
90.0
100
AcDbRotatedDimension
1001
ACAD
1000
DSTYLE
1002
{
1070
    40
1040
10.0
1002
}
  0
DIMENSION
  5
123
330
1F
100
AcDbEntity
  8
0
100
AcDbDimension
  2
*D8
 10
830.8932625120927
 20
-34.88912814822913
 30
0.0
 11
434.204298837681
 21
-34.88912814822913
 31
0.0
 70
   160
 71
     5
 42
749.9999999999999
  3
ISO-25
100
AcDbAlignedDimension
 13
80.89326251209286
 23
41.23675889328067
 33
0.0
 14
830.8932625120927
 24
41.23675889328069
 34
0.0
100
AcDbRotatedDimension
1001
ACAD
1000
DSTYLE
1002
{
1070
    40
1040
10.0
1002
}
  0
DIMENSION
  5
132
330
1F
100
AcDbEntity
  8
0
100
AcDbDimension
  2
*D9
 10
825.8932625120927
 20
496.2367588932806
 30
0.0
 11
880.326966571591
 21
556.8597536012539
 31
0.0
 70
   164
  1
<>
 71
     5
 42
4.999999999999995
  3
ISO-25
100
AcDbRadialDimension
 15
829.2337782567689
 25
499.9571022322173
 35
0.0
 40
0.0
1001
ACAD_DSTYLE_DIMRADIAL_EXTENSION
1070
   387
1070
     1
1070
   388
1040
0.0
1070
   390
1040
1.570796326794897
1001
ACAD
1000
DSTYLE
1002
{
1070
    40
1040
10.0
1002
}
  0
LINE
  5
13F
330
1F
100
AcDbEntity
  8
0
100
AcDbLine
 10
109.8932625120929
 20
84.23675889328068
 30
0.0
 11
109.8932625120929
 21
453.2367588932807
 31
0.0
  0
LINE
  5
140
330
1F
100
AcDbEntity
  8
0
100
AcDbLine
 10
128.8932625120929
 20
472.2367588932807
 30
0.0
 11
447.8932625120927
 21
472.2367588932806
 31
0.0
  0
LINE
  5
141
330
1F
100
AcDbEntity
  8
0
100
AcDbLine
 10
801.8932625120927
 20
393.2367588932806
 30
0.0
 11
801.8932625120927
 21
84.23675889328058
 31
0.0
  0
ARC
  5
142
330
1F
100
AcDbEntity
  8
0
100
AcDbCircle
 10
782.8932625120927
 20
84.23675889328058
 30
0.0
 40
19.0
100
AcDbArc
 50
270.0
 51
0.0
  0
LINE
  5
143
330
1F
100
AcDbEntity
  8
0
100
AcDbLine
 10
782.8932625120927
 20
65.23675889328058
 30
0.0
 11
128.8932625120929
 21
65.23675889328068
 31
0.0
  0
ARC
  5
144
330
1F
100
AcDbEntity
  8
0
100
AcDbCircle
 10
128.8932625120929
 20
84.23675889328068
 30
0.0
 40
19.0
100
AcDbArc
 50
180.0
 51
270.0
  0
ARC
  5
154
330
1F
100
AcDbEntity
  8
0
100
AcDbCircle
 10
128.8932625120929
 20
453.2367588932807
 30
0.0
 40
19.00000000000001
100
AcDbArc
 50
90.0
 51
180.0
  0
CIRCLE
  5
158
330
1F
100
AcDbEntity
  8
0
100
AcDbCircle
 10
518.3932625120929
 20
451.2367588932806
 30
0.0
 40
17.5
  0
DIMENSION
  5
159
330
1F
100
AcDbEntity
  8
0
100
AcDbDimension
  2
*D11
 10
801.8932625120927
 20
542.8229764257893
 30
0.0
 11
468.9230710113469
 21
542.8229764257893
 31
0.0
 70
   160
 71
     5
 42
691.9999999999999
  3
ISO-25
100
AcDbAlignedDimension
 13
109.8932625120929
 23
408.2367588932807
 33
0.0
 14
801.8932625120927
 24
408.2367588932806
 34
0.0
100
AcDbRotatedDimension
1001
ACAD
1000
DSTYLE
1002
{
1070
    40
1040
10.0
1002
}
  0
DIMENSION
  5
177
330
1F
100
AcDbEntity
  8
0
100
AcDbDimension
  2
*D13
 10
782.8932625120927
 20
84.23675889328058
 30
0.0
 11
711.8457440527529
 21
161.7021561814877
 31
0.0
 70
   164
  1
<>
 71
     5
 42
19.00000000000002
  3
ISO-25
100
AcDbRadialDimension
 15
770.0508046623845
 25
98.23930424683927
 35
0.0
 40
0.0
1001
ACAD_DSTYLE_DIMRADIAL_EXTENSION
1070
   387
1070
     1
1070
   388
1040
4.71238898038469
1070
   390
1040
0.0
1001
ACAD
1000
DSTYLE
1002
{
1070
    40
1040
10.0
1002
}
  0
DIMENSION
  5
184
330
1F
100
AcDbEntity
  8
0
100
AcDbDimension
  2
*D14
 10
535.4424789776615
 20
455.1831772580998
 30
0.0
 11
419.0085085295885
 21
428.2319586966454
 31
0.0
 70
   163
  1
<>
 71
     5
 42
35.00000000000004
  3
ISO-25
100
AcDbDiametricDimension
 15
501.3440460465241
 25
447.2903405284615
 35
0.0
 40
0.0
1001
ACAD_DSTYLE_DIMRADIAL_EXTENSION
1070
   387
1070
     1
1070
   388
1040
0.0
1070
   390
1040
6.283185307179586
1001
ACAD
1000
DSTYLE
1002
{
1070
    40
1040
10.0
1002
}
  0
DIMENSION
  5
192
330
1F
100
AcDbEntity
  8
0
100
AcDbDimension
  2
*D15
 10
594.7491332643115
 20
412.2367588932806
 30
0.0
 11
594.7491332643115
 21
431.6050910502952
 31
0.0
 70
   160
 71
     5
 42
39.0
  3
ISO-25
100
AcDbAlignedDimension
 13
518.3932625120929
 23
451.2367588932806
 33
0.0
 14
485.8932625120927
 24
412.2367588932806
 34
0.0
 50
90.0
100
AcDbRotatedDimension
1001
ACAD
1000
DSTYLE
1002
{
1070
    40
1040
10.0
1002
}
  0
DIMENSION
  5
1A1
330
1F
100
AcDbEntity
  8
0
100
AcDbDimension
  2
*D16
 10
80.89326251209286
 20
633.0249280068169
 30
0.0
 11
238.957655991584
 21
633.0249280068169
 31
0.0
 70
   160
 71
     5
 42
437.5
  3
ISO-25
100
AcDbAlignedDimension
 13
518.3932625120929
 23
406.8617588932806
 33
0.0
 14
80.89326251209286
 24
496.2367588932806
 34
0.0
100
AcDbRotatedDimension
1001
ACAD
1000
DSTYLE
1002
{
1070
    40
1040
10.0
1002
}
  0
MTEXT
  5
1D9
102
{ACAD_REACTORS
330
1DA
102
}
330
1F
100
AcDbEntity
  8
0
100
AcDbMText
 10
-65.56760694211971
 20
371.6674864498874
 30
0.0
 40
15.0
 41
340.9511989922356
 71
     6
 72
     1
  1
{UNDERMOUNT CUTOUT REFER TO BENCH TOP SUPPLIER FOR SUITABILITY OF UNDERMOUNT INSTALLATION AND TAP HOLE POSITIONING.}
 73
     1
 44
1.0
1001
ACAD
1000
ACAD_MTEXT_DEFINED_HEIGHT_BEGIN
1070
    46
1040
115.255
1000
ACAD_MTEXT_DEFINED_HEIGHT_END
  0
LEADER
  5
1DA
330
1F
100
AcDbEntity
  8
0
100
AcDbLeader
  3
ISO-25
 73
     0
 40
116.53
 41
319.125
 76
     3
 10
109.8932625120929
 20
268.7367588932807
 30
0.0
 10
-23.78630412641704
 20
371.2154615678879
 30
0.0
 10
-57.94760694211971
 20
373.4174864498874
 30
0.0
340
1D9
213
0.0
223
1.75
233
0.0
1001
ACAD
1000
DSTYLE
1002
{
1070
    40
1040
5.0
1070
    77
1070
     0
1070
   143
1040
0.0393700787401575
1070
    41
1040
6.0
1070
    44
1040
1.0
1070
    42
1040
1.0
1070
   147
1040
1.524
1070
    73
1070
     1
1070
    74
1070
     1
1070
   140
1040
3.5
1070
   284
1070
     0
1070
    78
1070
     0
1002
}
  0
MTEXT
  5
1FC
102
{ACAD_XDICTIONARY
360
397
102
}
330
1F
100
AcDbEntity
  8
0
100
AcDbMText
 10
138.8686942684824
 20
-64.92330199151115
 30
0.0
 40
2.5
 41
896.26904898814
 71
     1
 72
     5
  3
\fSymbol|b0|i0|c0|p34;\c8210719;\H6x;·  \fCalibri|b0|i0|c0|p0;    Please take care when installing this sink as an under-mount\P\fSymbol|b0|i0|c0|p34;·  \fCalibri|b0|i0|c0|p0;    Please assess bench-top material before proceeding with under-mount in
  1
stallation\P\fSymbol|b0|i0|c0|p34;·  \fCalibri|b0|i0|c0|p0;    Consult with your kitchen contractor for flushmount installation.}
 73
     1
 44
1.0
1001
ACAD
1000
ACAD_MTEXT_DEFINED_HEIGHT_BEGIN
1070
    46
1040
65.0
1000
ACAD_MTEXT_DEFINED_HEIGHT_END
  0
LINE
  5
231
330
1F
100
AcDbEntity
  8
0
  6
DASHED
100
AcDbLine
 10
80.89326251209286
 20
41.23675889328067
 30
0.0
 11
80.89326251209286
 21
496.2367588932806
 31
0.0
  0
ARC
  5
232
330
1F
100
AcDbEntity
  8
0
  6
DASHED
100
AcDbCircle
 10
85.89326251209286
 20
496.2367588932806
 30
0.0
 40
5.0
100
AcDbArc
 50
90.0
 51
180.0
  0
LINE
  5
233
330
1F
100
AcDbEntity
  8
0
  6
DASHED
100
AcDbLine
 10
85.89326251209286
 20
501.2367588932806
 30
0.0
 11
825.8932625120927
 21
501.2367588932806
 31
0.0
  0
ARC
  5
234
330
1F
100
AcDbEntity
  8
0
  6
DASHED
100
AcDbCircle
 10
825.8932625120927
 20
496.2367588932806
 30
0.0
 40
5.0
100
AcDbArc
 50
0.0
 51
90.0
  0
LINE
  5
235
330
1F
100
AcDbEntity
  8
0
  6
DASHED
100
AcDbLine
 10
830.8932625120927
 20
496.2367588932806
 30
0.0
 11
830.8932625120927
 21
41.23675889328069
 31
0.0
  0
ARC
  5
236
330
1F
100
AcDbEntity
  8
0
  6
DASHED
100
AcDbCircle
 10
825.8932625120927
 20
41.23675889328069
 30
0.0
 40
5.0
100
AcDbArc
 50
270.0
 51
0.0
  0
LINE
  5
237
330
1F
100
AcDbEntity
  8
0
  6
DASHED
100
AcDbLine
 10
825.8932625120927
 20
36.23675889328069
 30
0.0
 11
85.89326251209286
 21
36.23675889328067
 31
0.0
  0
ARC
  5
238
330
1F
100
AcDbEntity
  8
0
  6
DASHED
100
AcDbCircle
 10
85.89326251209286
 20
41.23675889328067
 30
0.0
 40
5.0
100
AcDbArc
 50
180.0
 51
270.0
  0
LINE
  5
239
330
1F
100
AcDbEntity
  8
0
100
AcDbLine
 10
90.89671936758896
 20
66.23675889328067
 30
0.0
 11
90.89671936758893
 21
471.2367588932805
 31
0.0
  0
ARC
  5
23A
330
1F
100
AcDbEntity
  8
0
100
AcDbCircle
 10
110.8967193675889
 20
471.2367588932805
 30
0.0
 40
19.99999999999999
100
AcDbArc
 50
90.0
 51
180.0
  0
LINE
  5
23B
330
1F
100
AcDbEntity
  8
0
100
AcDbLine
 10
110.8967193675889
 20
491.2367588932805
 30
0.0
 11
800.896719367589
 21
491.2367588932805
 31
0.0
  0
ARC
  5
23C
330
1F
100
AcDbEntity
  8
0
100
AcDbCircle
 10
800.896719367589
 20
471.2367588932805
 30
0.0
 40
20.0
100
AcDbArc
 50
0.0
 51
90.0
  0
LINE
  5
23D
330
1F
100
AcDbEntity
  8
0
100
AcDbLine
 10
820.896719367589
 20
471.2367588932805
 30
0.0
 11
820.896719367589
 21
66.2367588932807
 31
0.0
  0
ARC
  5
23E
330
1F
100
AcDbEntity
  8
0
100
AcDbCircle
 10
800.896719367589
 20
66.2367588932807
 30
0.0
 40
20.0
100
AcDbArc
 50
270.0
 51
0.0
  0
LINE
  5
23F
330
1F
100
AcDbEntity
  8
0
100
AcDbLine
 10
800.896719367589
 20
46.23675889328069
 30
0.0
 11
110.896719367589
 21
46.23675889328067
 31
0.0
  0
ARC
  5
240
330
1F
100
AcDbEntity
  8
0
100
AcDbCircle
 10
110.896719367589
 20
66.23675889328067
 30
0.0
 40
20.0
100
AcDbArc
 50
180.0
 51
270.0
  0
LINE
  5
27A
330
1F
100
AcDbEntity
  8
0
100
AcDbLine
 10
466.8932625120927
 20
453.2367588932806
 30
0.0
 11
466.8932625120927
 21
431.2367588932806
 31
0.0
  0
LINE
  5
27B
330
1F
100
AcDbEntity
  8
0
100
AcDbLine
 10
485.8932625120927
 20
412.2367588932806
 30
0.0
 11
782.8932625120927
 21
412.2367588932806
 31
0.0
  0
ARC
  5
27C
330
1F
100
AcDbEntity
  8
0
100
AcDbCircle
 10
447.8932625120927
 20
453.2367588932806
 30
0.0
 40
19.0
100
AcDbArc
 50
0.0
 51
90.0
  0
ARC
  5
27D
330
1F
100
AcDbEntity
  8
0
100
AcDbCircle
 10
485.8932625120927
 20
431.2367588932806
 30
0.0
 40
19.0
100
AcDbArc
 50
180.0
 51
270.0
  0
ARC
  5
27E
330
1F
100
AcDbEntity
  8
0
100
AcDbCircle
 10
782.8932625120927
 20
393.2367588932806
 30
0.0
 40
19.0
100
AcDbArc
 50
0.0
 51
90.0
  0
DIMENSION
  5
27F
330
1F
100
AcDbEntity
  8
0
100
AcDbDimension
  2
*D20
 10
466.8932625120927
 20
272.9714206961162
 30
0.0
 11
294.4626352078864
 21
272.9714206961162
 31
0.0
 70
   160
 71
     5
 42
356.9999999999999
  3
ISO-25
100
AcDbAlignedDimension
 13
109.8932625120929
 23
453.2367588932807
 33
0.0
 14
466.8932625120927
 24
453.2367588932806
 34
0.0
100
AcDbRotatedDimension
1001
ACAD
1000
DSTYLE
1002
{
1070
    40
1040
10.0
1002
}
  0
DIMENSION
  5
28E
330
1F
100
AcDbEntity
  8
0
100
AcDbDimension
  2
*D21
 10
535.8211997168805
 20
65.23675889328058
 30
0.0
 11
535.8211997168805
 21
241.209587097726
 31
0.0
 70
   160
 71
     5
 42
347.0
  3
ISO-25
100
AcDbAlignedDimension
 13
782.8932625120927
 23
412.2367588932806
 33
0.0
 14
782.8932625120927
 24
65.23675889328058
 34
0.0
 50
90.0
100
AcDbRotatedDimension
1001
ACAD
1000
DSTYLE
1002
{
1070
    40
1040
10.0
1002
}
  0
DIMENSION
  5
29D
330
1F
100
AcDbEntity
  8
0
100
AcDbDimension
  2
*D22
 10
466.8932625120927
 20
344.696055728893
 30
0.0
 11
634.3932625120927
 21
363.708555728893
 31
0.0
 70
    32
 71
     5
 42
335.0
  3
ISO-25
100
AcDbAlignedDimension
 13
801.8932625120927
 23
393.2367588932806
 33
0.0
 14
466.8932625120927
 24
431.2367588932806
 34
0.0
100
AcDbRotatedDimension
1001
ACAD
1000
DSTYLE
1002
{
1070
    40
1040
10.0
1002
}
  0
DIMENSION
  5
2CA
330
1F
100
AcDbEntity
  8
0
100
AcDbDimension
  2
*D25
 10
801.8932625120927
 20
501.2367588932806
 30
0.0
 11
655.391935192885
 21
501.2367588932806
 31
0.0
 70
   160
 71
     5
 42
283.4999999999999
  3
ISO-25
100
AcDbAlignedDimension
 13
518.3932625120929
 23
451.2367588932806
 33
0.0
 14
801.8932625120927
 24
393.2367588932806
 34
0.0
100
AcDbRotatedDimension
1001
ACAD
1000
DSTYLE
1002
{
1070
    40
1040
10.0
1002
}
  0
DIMENSION
  5
361
330
1F
100
AcDbEntity
  8
0
100
AcDbDimension
  2
*D32
 10
110.896719367589
 20
66.23675889328067
 30
0.0
 11
23.56091398441687
 21
6.100176812797493
 31
0.0
 70
   164
  1
<>
 71
     5
 42
20.0
  3
ISO-25
100
AcDbRadialDimension
 15
94.42409310175431
 25
54.89424665365163
 35
0.0
 40
0.0
1001
ACAD_DSTYLE_DIMRADIAL_EXTENSION
1070
   387
1070
     1
1070
   388
1040
3.141592653589793
1070
   390
1040
4.71238898038469
1001
ACAD
1000
DSTYLE
1002
{
1070
    40
1040
10.0
1002
}
  0
ENDSEC
  0
SECTION
  2
OBJECTS
  0
DICTIONARY
  5
C
330
0
100
AcDbDictionary
281
     1
  3
ACAD_GROUP
350
D
  3
ACAD_IMAGE_VARS
350
6A
  3
ACAD_LAYOUT
350
1A
  3
ACAD_MLINESTYLE
350
17
  3
ACAD_PLOTSETTINGS
350
19
  3
ACAD_PLOTSTYLENAME
350
E
  3
ACAD_SCALELIST
350
40
  3
AcDbVariableDictionary
350
3D
  3
APPDATA
350
71
  3
DWGPROPS
350
396
  0
DICTIONARY
  5
397
330
1FC
100
AcDbDictionary
280
     1
281
     1
  3
ACAD_MTEXT_2008_RT
360
399
  3
ACAD_MTEXT_RT
360
398
  0
DICTIONARY
  5
D
102
{ACAD_REACTORS
330
C
102
}
330
C
100
AcDbDictionary
281
     1
  0
RASTERVARIABLES
  5
6A
102
{ACAD_REACTORS
330
C
102
}
330
C
100
AcDbRasterVariables
 90
        0
 70
     1
 71
     1
 72
     1
  0
DICTIONARY
  5
1A
102
{ACAD_REACTORS
330
C
102
}
330
C
100
AcDbDictionary
281
     1
  3
Model
350
22
  3
Sheet1
350
1E
  3
Sheet2
350
26
  0
DICTIONARY
  5
17
102
{ACAD_REACTORS
330
C
102
}
330
C
100
AcDbDictionary
281
     1
  3
Standard
350
18
  0
DICTIONARY
  5
19
102
{ACAD_REACTORS
330
C
102
}
330
C
100
AcDbDictionary
281
     1
  0
ACDBDICTIONARYWDFLT
  5
E
102
{ACAD_REACTORS
330
C
102
}
330
C
100
AcDbDictionary
281
     1
  3
Normal
350
F
100
AcDbDictionaryWithDefault
340
F
  0
DICTIONARY
  5
40
102
{ACAD_REACTORS
330
C
102
}
330
C
100
AcDbDictionary
281
     1
  3
A0
350
41
  3
A1
350
42
  3
A2
350
43
  3
A3
350
44
  3
A4
350
45
  3
A5
350
46
  3
A6
350
47
  3
A7
350
48
  3
A8
350
49
  3
A9
350
4A
  3
B0
350
4B
  3
B1
350
4C
  3
B2
350
4D
  3
B3
350
4E
  3
B4
350
4F
  3
B5
350
50
  3
B6
350
51
  3
B7
350
52
  3
B8
350
53
  3
B9
350
54
  3
C0
350
55
  3
C1
350
56
  3
C2
350
57
  3
C3
350
58
  3
C4
350
59
  3
C5
350
5A
  3
C6
350
5B
  3
C7
350
5C
  3
C8
350
5D
  3
C9
350
5E
  3
D0
350
5F
  3
D1
350
60
  3
D2
350
61
  0
DICTIONARY
  5
3D
102
{ACAD_REACTORS
330
C
102
}
330
C
100
AcDbDictionary
281
     1
  0
DICTIONARY
  5
71
102
{ACAD_REACTORS
330
C
102
}
330
C
100
AcDbDictionary
281
     1
  0
XRECORD
  5
396
102
{ACAD_REACTORS
330
C
102
}
330
C
100
AcDbXrecord
280
     1
  1
DWGPROPS COOKIE
  2

  3

  4

  6

  7

  8
jaxton
  9

300
=
301
=
302
=
303
=
304
=
305
=
306
=
307
=
308
=
309
=
 40
0.0
 41
2455022.637359514
 42
2456995.235627974
  1

 90
        0
  0
XRECORD
  5
399
102
{ACAD_REACTORS
330
397
102
}
330
397
100
AcDbXrecord
280
     1
 40
6632516.0
  1
\fSymbol|b0|i0|c0|p34;\c8210719;\H6x;·  \fCalibri|b0|i0|c0|p0;    Please take care when installing this sink as an under-mount\P\fSymbol|b0|i0|c0|p34;·  \fCalibri|b0|i0|c0|p0;    Please assess bench-top material before proceeding with under-mount ins
  1
tallation\P\fSymbol|b0|i0|c0|p34;·  \fCalibri|b0|i0|c0|p0;    Consult with your kitchen contractor for flushmount installation.}
  0
XRECORD
  5
398
102
{ACAD_REACTORS
330
397
102
}
330
397
100
AcDbXrecord
280
     1
 40
6632516.0
  1
\fSymbol|b0|i0|c0|p34;\c8210719;\H6x;·  \fCalibri|b0|i0|c0|p0;    Please take care when installing this sink as an under-mount\P\fSymbol|b0|i0|c0|p34;·  \fCalibri|b0|i0|c0|p0;    Please assess bench-top material before proceeding with under-mount ins
  1
tallation\P\fSymbol|b0|i0|c0|p34;·  \fCalibri|b0|i0|c0|p0;    Consult with your kitchen contractor for flushmount installation.}
  0
LAYOUT
  5
22
102
{ACAD_REACTORS
330
1A
102
}
330
1A
100
AcDbPlotSettings
  1

  2
none_device
  4
ISO_A3_(420.00_x_297.00_MM)
  6

 40
7.5
 41
20.0
 42
7.5
 43
20.0
 44
420.0
 45
297.0
 46
20.78282828282826
 47
0.0
 48
0.0
 49
0.0
140
0.0
141
0.0
142
1.0
143
1.155642023346303
 70
  1204
 72
     1
 73
     0
 74
     1
  7
monochrome.ctb
 75
     0
147
0.8653198653198654
148
-134.1869158878504
149
0.0
100
AcDbLayout
  1
Model
 70
     1
 71
     0
 10
0.0
 20
0.0
 11
420.0
 21
297.0
 12
0.0
 22
0.0
 32
0.0
 14
-85.73985996170931
 24
-129.1649686581778
 34
0.0
 15
1263.396363331402
 25
682.26391742075
 35
0.0
146
0.0
 13
0.0
 23
0.0
 33
0.0
 16
1.0
 26
0.0
 36
0.0
 17
0.0
 27
1.0
 37
0.0
 76
     0
330
1F
331
29
  0
LAYOUT
  5
1E
102
{ACAD_REACTORS
330
1A
102
}
330
1A
100
AcDbPlotSettings
  1

  2
none_device
  4

  6

 40
0.0
 41
0.0
 42
0.0
 43
0.0
 44
0.0
 45
0.0
 46
0.0
 47
0.0
 48
0.0
 49
0.0
140
0.0
141
0.0
142
1.0
143
1.0
 70
   688
 72
     0
 73
     0
 74
     5
  7

 75
    16
147
1.0
148
0.0
149
0.0
100
AcDbLayout
  1
Sheet1
 70
     1
 71
     1
 10
0.0
 20
0.0
 11
420.0
 21
297.0
 12
0.0
 22
0.0
 32
0.0
 14
1.000000000000000E+20
 24
1.000000000000000E+20
 34
1.000000000000000E+20
 15
-1.000000000000000E+20
 25
-1.000000000000000E+20
 35
-1.000000000000000E+20
146
0.0
 13
0.0
 23
0.0
 33
0.0
 16
1.0
 26
0.0
 36
0.0
 17
0.0
 27
1.0
 37
0.0
 76
     0
330
1B
  0
LAYOUT
  5
26
102
{ACAD_REACTORS
330
1A
102
}
330
1A
100
AcDbPlotSettings
  1

  2
none_device
  4

  6

 40
0.0
 41
0.0
 42
0.0
 43
0.0
 44
0.0
 45
0.0
 46
0.0
 47
0.0
 48
0.0
 49
0.0
140
0.0
141
0.0
142
1.0
143
1.0
 70
   688
 72
     0
 73
     0
 74
     5
  7

 75
    16
147
1.0
148
0.0
149
0.0
100
AcDbLayout
  1
Sheet2
 70
     1
 71
     2
 10
0.0
 20
0.0
 11
0.0
 21
0.0
 12
0.0
 22
0.0
 32
0.0
 14
0.0
 24
0.0
 34
0.0
 15
0.0
 25
0.0
 35
0.0
146
0.0
 13
0.0
 23
0.0
 33
0.0
 16
1.0
 26
0.0
 36
0.0
 17
0.0
 27
1.0
 37
0.0
 76
     0
330
23
  0
MLINESTYLE
  5
18
102
{ACAD_REACTORS
330
17
102
}
330
17
100
AcDbMlineStyle
  2
Standard
 70
     0
  3

 62
   256
 51
90.0
 52
90.0
 71
     2
 49
0.5
 62
   256
  6
BYLAYER
 49
-0.5
 62
   256
  6
BYLAYER
  0
ACDBPLACEHOLDER
  5
F
102
{ACAD_REACTORS
330
E
102
}
330
E
  0
SCALE
  5
41
102
{ACAD_REACTORS
330
40
102
}
330
40
100
AcDbScale
 70
     0
300
1:1
140
1.0
141
1.0
290
     1
  0
SCALE
  5
42
102
{ACAD_REACTORS
330
40
102
}
330
40
100
AcDbScale
 70
     0
300
1:2
140
1.0
141
2.0
290
     0
  0
SCALE
  5
43
102
{ACAD_REACTORS
330
40
102
}
330
40
100
AcDbScale
 70
     0
300
1:4
140
1.0
141
4.0
290
     0
  0
SCALE
  5
44
102
{ACAD_REACTORS
330
40
102
}
330
40
100
AcDbScale
 70
     0
300
1:5
140
1.0
141
5.0
290
     0
  0
SCALE
  5
45
102
{ACAD_REACTORS
330
40
102
}
330
40
100
AcDbScale
 70
     0
300
1:8
140
1.0
141
8.0
290
     0
  0
SCALE
  5
46
102
{ACAD_REACTORS
330
40
102
}
330
40
100
AcDbScale
 70
     0
300
1:10
140
1.0
141
10.0
290
     0
  0
SCALE
  5
47
102
{ACAD_REACTORS
330
40
102
}
330
40
100
AcDbScale
 70
     0
300
1:16
140
1.0
141
16.0
290
     0
  0
SCALE
  5
48
102
{ACAD_REACTORS
330
40
102
}
330
40
100
AcDbScale
 70
     0
300
1:20
140
1.0
141
20.0
290
     0
  0
SCALE
  5
49
102
{ACAD_REACTORS
330
40
102
}
330
40
100
AcDbScale
 70
     0
300
1:30
140
1.0
141
30.0
290
     0
  0
SCALE
  5
4A
102
{ACAD_REACTORS
330
40
102
}
330
40
100
AcDbScale
 70
     0
300
1:40
140
1.0
141
40.0
290
     0
  0
SCALE
  5
4B
102
{ACAD_REACTORS
330
40
102
}
330
40
100
AcDbScale
 70
     0
300
1:50
140
1.0
141
50.0
290
     0
  0
SCALE
  5
4C
102
{ACAD_REACTORS
330
40
102
}
330
40
100
AcDbScale
 70
     0
300
1:100
140
1.0
141
100.0
290
     0
  0
SCALE
  5
4D
102
{ACAD_REACTORS
330
40
102
}
330
40
100
AcDbScale
 70
     0
300
2:1
140
2.0
141
1.0
290
     0
  0
SCALE
  5
4E
102
{ACAD_REACTORS
330
40
102
}
330
40
100
AcDbScale
 70
     0
300
4:1
140
4.0
141
1.0
290
     0
  0
SCALE
  5
4F
102
{ACAD_REACTORS
330
40
102
}
330
40
100
AcDbScale
 70
     0
300
8:1
140
8.0
141
1.0
290
     0
  0
SCALE
  5
50
102
{ACAD_REACTORS
330
40
102
}
330
40
100
AcDbScale
 70
     0
300
10:1
140
10.0
141
1.0
290
     0
  0
SCALE
  5
51
102
{ACAD_REACTORS
330
40
102
}
330
40
100
AcDbScale
 70
     0
300
100:1
140
100.0
141
1.0
290
     0
  0
SCALE
  5
52
102
{ACAD_REACTORS
330
40
102
}
330
40
100
AcDbScale
 70
     0
300
1/128" = 1'-0"
140
0.0078125
141
12.0
290
     0
  0
SCALE
  5
53
102
{ACAD_REACTORS
330
40
102
}
330
40
100
AcDbScale
 70
     0
300
1/64" = 1'-0"
140
0.015625
141
12.0
290
     0
  0
SCALE
  5
54
102
{ACAD_REACTORS
330
40
102
}
330
40
100
AcDbScale
 70
     0
300
1/32" = 1'-0"
140
0.03125
141
12.0
290
     0
  0
SCALE
  5
55
102
{ACAD_REACTORS
330
40
102
}
330
40
100
AcDbScale
 70
     0
300
1/16" = 1'-0"
140
0.0625
141
12.0
290
     0
  0
SCALE
  5
56
102
{ACAD_REACTORS
330
40
102
}
330
40
100
AcDbScale
 70
     0
300
3/32" = 1'-0"
140
0.09375
141
12.0
290
     0
  0
SCALE
  5
57
102
{ACAD_REACTORS
330
40
102
}
330
40
100
AcDbScale
 70
     0
300
1/8" = 1'-0"
140
0.125
141
12.0
290
     0
  0
SCALE
  5
58
102
{ACAD_REACTORS
330
40
102
}
330
40
100
AcDbScale
 70
     0
300
3/16" = 1'-0"
140
0.1875
141
12.0
290
     0
  0
SCALE
  5
59
102
{ACAD_REACTORS
330
40
102
}
330
40
100
AcDbScale
 70
     0
300
1/4" = 1'-0"
140
0.25
141
12.0
290
     0
  0
SCALE
  5
5A
102
{ACAD_REACTORS
330
40
102
}
330
40
100
AcDbScale
 70
     0
300
3/8" = 1'-0"
140
0.375
141
12.0
290
     0
  0
SCALE
  5
5B
102
{ACAD_REACTORS
330
40
102
}
330
40
100
AcDbScale
 70
     0
300
1/2" = 1'-0"
140
0.5
141
12.0
290
     0
  0
SCALE
  5
5C
102
{ACAD_REACTORS
330
40
102
}
330
40
100
AcDbScale
 70
     0
300
3/4" = 1'-0"
140
0.75
141
12.0
290
     0
  0
SCALE
  5
5D
102
{ACAD_REACTORS
330
40
102
}
330
40
100
AcDbScale
 70
     0
300
1" = 1'-0"
140
1.0
141
12.0
290
     0
  0
SCALE
  5
5E
102
{ACAD_REACTORS
330
40
102
}
330
40
100
AcDbScale
 70
     0
300
1-1/2" = 1'-0"
140
1.5
141
12.0
290
     0
  0
SCALE
  5
5F
102
{ACAD_REACTORS
330
40
102
}
330
40
100
AcDbScale
 70
     0
300
3" = 1'-0"
140
3.0
141
12.0
290
     0
  0
SCALE
  5
60
102
{ACAD_REACTORS
330
40
102
}
330
40
100
AcDbScale
 70
     0
300
6" = 1'-0"
140
6.0
141
12.0
290
     0
  0
SCALE
  5
61
102
{ACAD_REACTORS
330
40
102
}
330
40
100
AcDbScale
 70
     0
300
1'-0" = 1'-0"
140
12.0
141
12.0
290
     0
  0
ENDSEC
  0
EOF
