  0
SECTION
  2
HEADER
  9
$ACADVER
  1
AC1015
  9
$ACADMAINTVER
 70
     6
  9
$DWGCODEPAGE
  3
ANSI_1252
  9
$INSBASE
 10
0.0
 20
0.0
 30
0.0
  9
$EXTMIN
 10
0.0
 20
0.0
 30
0.0
  9
$EXTMAX
 10
420.0
 20
297.0
 30
0.0
  9
$LIMMIN
 10
0.0
 20
0.0
  9
$LIMMAX
 10
420.0
 20
297.0
  9
$ORTHOMODE
 70
     0
  9
$REGENMODE
 70
     1
  9
$FILLMODE
 70
     1
  9
$QTEXTMODE
 70
     0
  9
$MIRRTEXT
 70
     1
  9
$LTSCALE
 40
1.0
  9
$ATTMODE
 70
     1
  9
$TEXTSIZE
 40
3.5
  9
$TRACEWID
 40
1.0
  9
$TEXTSTYLE
  7
Standard
  9
$CLAYER
  8
0
  9
$CELTYPE
  6
ByLayer
  9
$CECOLOR
 62
   256
  9
$CELTSCALE
 40
1.0
  9
$DISPSILH
 70
     0
  9
$DIMSCALE
 40
1.0
  9
$DIMASZ
 40
3.302
  9
$DIMEXO
 40
1.0
  9
$DIMDLI
 40
3.75
  9
$DIMRND
 40
0.0
  9
$DIMDLE
 40
0.0
  9
$DIMEXE
 40
1.0
  9
$DIMTP
 40
0.0
  9
$DIMTM
 40
0.0
  9
$DIMTXT
 40
3.5
  9
$DIMCEN
 40
2.5
  9
$DIMTSZ
 40
0.0
  9
$DIMTOL
 70
     0
  9
$DIMLIM
 70
     0
  9
$DIMTIH
 70
     1
  9
$DIMTOH
 70
     1
  9
$DIMSE1
 70
     0
  9
$DIMSE2
 70
     0
  9
$DIMTAD
 70
     1
  9
$DIMZIN
 70
     0
  9
$DIMBLK
  1

  9
$DIMASO
 70
     1
  9
$DIMSHO
 70
     1
  9
$DIMPOST
  1

  9
$DIMAPOST
  1

  9
$DIMALT
 70
     0
  9
$DIMALTD
 70
     3
  9
$DIMALTF
 40
0.0393700787401575
  9
$DIMLFAC
 40
1.0
  9
$DIMTOFL
 70
     1
  9
$DIMTVP
 40
0.0
  9
$DIMTIX
 70
     0
  9
$DIMSOXD
 70
     0
  9
$DIMSAH
 70
     0
  9
$DIMBLK1
  1

  9
$DIMBLK2
  1

  9
$DIMSTYLE
  2
ISO-25
  9
$DIMCLRD
 70
     0
  9
$DIMCLRE
 70
     0
  9
$DIMCLRT
 70
     0
  9
$DIMTFAC
 40
1.0
  9
$DIMGAP
 40
1.524
  9
$DIMJUST
 70
     0
  9
$DIMSD1
 70
     0
  9
$DIMSD2
 70
     0
  9
$DIMTOLJ
 70
     0
  9
$DIMTZIN
 70
     0
  9
$DIMALTZ
 70
     0
  9
$DIMALTTZ
 70
     0
  9
$DIMUPT
 70
     0
  9
$DIMDEC
 70
     2
  9
$DIMTDEC
 70
     2
  9
$DIMALTU
 70
     2
  9
$DIMALTTD
 70
     3
  9
$DIMTXSTY
  7
Standard
  9
$DIMAUNIT
 70
     0
  9
$DIMADEC
 70
     2
  9
$DIMALTRND
 40
0.0
  9
$DIMAZIN
 70
     0
  9
$DIMDSEP
 70
    44
  9
$DIMATFIT
 70
     3
  9
$DIMFRAC
 70
     0
  9
$DIMLDRBLK
  1

  9
$DIMLUNIT
 70
     2
  9
$DIMLWD
 70
    -2
  9
$DIMLWE
 70
    -2
  9
$DIMTMOVE
 70
     0
  9
$LUNITS
 70
     2
  9
$LUPREC
 70
     2
  9
$SKETCHINC
 40
1.0
  9
$FILLETRAD
 40
10.0
  9
$AUNITS
 70
     0
  9
$AUPREC
 70
     2
  9
$MENU
  1
.
  9
$ELEVATION
 40
0.0
  9
$PELEVATION
 40
0.0
  9
$THICKNESS
 40
0.0
  9
$LIMCHECK
 70
     0
  9
$CHAMFERA
 40
10.0
  9
$CHAMFERB
 40
10.0
  9
$CHAMFERC
 40
20.0
  9
$CHAMFERD
 40
0.0
  9
$SKPOLY
 70
     0
  9
$TDCREATE
 40
2456778.572633646
  9
$TDUCREATE
 40
2456778.176800312
  9
$TDUPDATE
 40
2456814.343174491
  9
$TDUUPDATE
 40
2456813.947341158
  9
$TDINDWG
 40
0.0075241435
  9
$TDUSRTIMER
 40
2456813.941646493
  9
$USRTIMER
 70
     1
  9
$ANGBASE
 50
0.0
  9
$ANGDIR
 70
     0
  9
$PDMODE
 70
     0
  9
$PDSIZE
 40
-1.0
  9
$PLINEWID
 40
0.0
  9
$SPLFRAME
 70
     0
  9
$SPLINETYPE
 70
     6
  9
$SPLINESEGS
 70
     8
  9
$HANDSEED
  5
FB
  9
$SURFTAB1
 70
     6
  9
$SURFTAB2
 70
     6
  9
$SURFTYPE
 70
     6
  9
$SURFU
 70
     6
  9
$SURFV
 70
     6
  9
$UCSBASE
  2

  9
$UCSNAME
  2

  9
$UCSORG
 10
0.0
 20
0.0
 30
0.0
  9
$UCSXDIR
 10
1.0
 20
0.0
 30
0.0
  9
$UCSYDIR
 10
0.0
 20
1.0
 30
0.0
  9
$UCSORTHOREF
  2

  9
$UCSORTHOVIEW
 70
     0
  9
$UCSORGTOP
 10
0.0
 20
0.0
 30
0.0
  9
$UCSORGBOTTOM
 10
0.0
 20
0.0
 30
0.0
  9
$UCSORGLEFT
 10
0.0
 20
0.0
 30
0.0
  9
$UCSORGRIGHT
 10
0.0
 20
0.0
 30
0.0
  9
$UCSORGFRONT
 10
0.0
 20
0.0
 30
0.0
  9
$UCSORGBACK
 10
0.0
 20
0.0
 30
0.0
  9
$PUCSBASE
  2

  9
$PUCSNAME
  2

  9
$PUCSORG
 10
0.0
 20
0.0
 30
0.0
  9
$PUCSXDIR
 10
1.0
 20
0.0
 30
0.0
  9
$PUCSYDIR
 10
0.0
 20
1.0
 30
0.0
  9
$PUCSORTHOREF
  2

  9
$PUCSORTHOVIEW
 70
     0
  9
$PUCSORGTOP
 10
0.0
 20
0.0
 30
0.0
  9
$PUCSORGBOTTOM
 10
0.0
 20
0.0
 30
0.0
  9
$PUCSORGLEFT
 10
0.0
 20
0.0
 30
0.0
  9
$PUCSORGRIGHT
 10
0.0
 20
0.0
 30
0.0
  9
$PUCSORGFRONT
 10
0.0
 20
0.0
 30
0.0
  9
$PUCSORGBACK
 10
0.0
 20
0.0
 30
0.0
  9
$USERI1
 70
     0
  9
$USERI2
 70
     0
  9
$USERI3
 70
     0
  9
$USERI4
 70
     0
  9
$USERI5
 70
     0
  9
$USERR1
 40
0.0
  9
$USERR2
 40
0.0
  9
$USERR3
 40
0.0
  9
$USERR4
 40
0.0
  9
$USERR5
 40
0.0
  9
$WORLDVIEW
 70
     1
  9
$SHADEDGE
 70
     3
  9
$SHADEDIF
 70
    70
  9
$TILEMODE
 70
     1
  9
$MAXACTVP
 70
    64
  9
$PINSBASE
 10
0.0
 20
0.0
 30
0.0
  9
$PLIMCHECK
 70
     0
  9
$PEXTMIN
 10
1.000000000000000E+20
 20
1.000000000000000E+20
 30
1.000000000000000E+20
  9
$PEXTMAX
 10
-1.000000000000000E+20
 20
-1.000000000000000E+20
 30
-1.000000000000000E+20
  9
$PLIMMIN
 10
0.0
 20
0.0
  9
$PLIMMAX
 10
0.0
 20
0.0
  9
$UNITMODE
 70
     0
  9
$VISRETAIN
 70
     1
  9
$PLINEGEN
 70
     0
  9
$PSLTSCALE
 70
     1
  9
$TREEDEPTH
 70
  3020
  9
$CMLSTYLE
  2
Standard
  9
$CMLJUST
 70
     0
  9
$CMLSCALE
 40
20.0
  9
$PROXYGRAPHICS
 70
     1
  9
$MEASUREMENT
 70
     1
  9
$CELWEIGHT
370
    -1
  9
$ENDCAPS
280
     0
  9
$JOINSTYLE
280
     0
  9
$LWDISPLAY
290
     1
  9
$INSUNITS
 70
     4
  9
$HYPERLINKBASE
  1

  9
$STYLESHEET
  1

  9
$XEDIT
290
     1
  9
$CEPSNTYPE
380
     0
  9
$PSTYLEMODE
290
     1
  9
$FINGERPRINTGUID
  2
{64042EBC-61F9-42BB-96A0-9393E9C98933}
  9
$VERSIONGUID
  2
{FAEB1C32-E019-11D5-929B-00C0DF256EC4}
  9
$EXTNAMES
290
     1
  9
$PSVPSCALE
 40
0.0
  9
$OLESTARTUP
290
     0
  0
ENDSEC
  0
SECTION
  2
CLASSES
  0
CLASS
  1
ACDBDICTIONARYWDFLT
  2
AcDbDictionaryWithDefault
  3
ObjectDBX Classes
 90
        0
280
     0
281
     0
  0
CLASS
  1
VISUALSTYLE
  2
AcDbVisualStyle
  3
ObjectDBX Classes
 90
     4095
280
     0
281
     0
  0
CLASS
  1
MATERIAL
  2
AcDbMaterial
  3
ObjectDBX Classes
 90
     1153
280
     0
281
     0
  0
CLASS
  1
ACDBPLACEHOLDER
  2
AcDbPlaceHolder
  3
ObjectDBX Classes
 90
        0
280
     0
281
     0
  0
CLASS
  1
LAYOUT
  2
AcDbLayout
  3
ObjectDBX Classes
 90
        0
280
     0
281
     0
  0
CLASS
  1
SCALE
  2
AcDbScale
  3
ObjectDBX Classes
 90
     1153
280
     0
281
     0
  0
CLASS
  1
TABLESTYLE
  2
AcDbTableStyle
  3
ObjectDBX Classes
 90
     4095
280
     0
281
     0
  0
CLASS
  1
SUN
  2
AcDbSun
  3
SCENEOE
 90
     1153
280
     0
281
     0
  0
CLASS
  1
RASTERVARIABLES
  2
AcDbRasterVariables
  3
ISM
 90
        0
280
     0
281
     0
  0
CLASS
  1
DICTIONARYVAR
  2
AcDbDictionaryVar
  3
ObjectDBX Classes
 90
        0
280
     0
281
     0
  0
CLASS
  1
DIMASSOC
  2
AcDbDimAssoc
  3
"AcDbDimAssoc|Product Desc:     AcDim ARX App For Dimension|Company:          Autodesk, Inc.|WEB Address:      www.autodesk.com"
 90
        0
280
     0
281
     0
  0
ENDSEC
  0
SECTION
  2
TABLES
  0
TABLE
  2
VPORT
  5
8
330
0
100
AcDbSymbolTable
 70
     1
  0
VPORT
  5
29
330
8
100
AcDbSymbolTableRecord
100
AcDbViewportTableRecord
  2
*Active
 70
     0
 10
0.0
 20
0.0
 11
1.0
 21
1.0
 12
121.2788613161019
 22
253.3420045685824
 13
0.0
 23
0.0
 14
10.0
 24
10.0
 15
10.0
 25
10.0
 16
0.0
 26
0.0
 36
1.0
 17
0.0
 27
0.0
 37
0.0
 40
1602.251212572684
 41
1.819499341238472
 42
50.0
 43
0.0
 44
0.0
 50
0.0
 51
0.0
 71
    16
 72
  2000
 73
     1
 74
     3
 75
     0
 76
     0
 77
     0
 78
     0
281
     0
 65
     1
110
0.0
120
0.0
130
0.0
111
1.0
121
0.0
131
0.0
112
0.0
122
1.0
132
0.0
 79
     0
146
0.0
  0
ENDTAB
  0
TABLE
  2
LTYPE
  5
5
330
0
100
AcDbSymbolTable
 70
     6
  0
LTYPE
  5
14
330
5
100
AcDbSymbolTableRecord
100
AcDbLinetypeTableRecord
  2
ByBlock
 70
     0
  3

 72
    65
 73
     0
 40
0.0
  0
LTYPE
  5
15
330
5
100
AcDbSymbolTableRecord
100
AcDbLinetypeTableRecord
  2
ByLayer
 70
     0
  3

 72
    65
 73
     0
 40
0.0
  0
LTYPE
  5
16
330
5
100
AcDbSymbolTableRecord
100
AcDbLinetypeTableRecord
  2
Continuous
 70
     0
  3
Solid line
 72
    65
 73
     0
 40
0.0
  0
LTYPE
  5
3F
330
5
100
AcDbSymbolTableRecord
100
AcDbLinetypeTableRecord
  2
HIDDEN
 70
     0
  3
Hidden __ __ __ __ __ __ __ __ __ __ __ __ __ __
 72
    65
 73
     2
 40
1.905
 49
1.27
 74
     0
 49
-0.635
 74
     0
  0
LTYPE
  5
40
330
5
100
AcDbSymbolTableRecord
100
AcDbLinetypeTableRecord
  2
PHANTOM
 70
     0
  3
Phantom ______  __  __  ______  __  __  ______
 72
    65
 73
     6
 40
12.7
 49
6.35
 74
     0
 49
-1.27
 74
     0
 49
1.27
 74
     0
 49
-1.27
 74
     0
 49
1.27
 74
     0
 49
-1.27
 74
     0
  0
LTYPE
  5
41
330
5
100
AcDbSymbolTableRecord
100
AcDbLinetypeTableRecord
  2
CENTER
 70
     0
  3
Center ____ _ ____ _ ____ _ ____ _ ____ _ ____
 72
    65
 73
     4
 40
10.16
 49
6.35
 74
     0
 49
-1.27
 74
     0
 49
1.27
 74
     0
 49
-1.27
 74
     0
  0
LTYPE
  5
42
330
5
100
AcDbSymbolTableRecord
100
AcDbLinetypeTableRecord
  2
CENTERX2
 70
     0
  3
Center (2x) ________  __  ________  __  _____
 72
    65
 73
     4
 40
20.32
 49
12.7
 74
     0
 49
-2.54
 74
     0
 49
2.54
 74
     0
 49
-2.54
 74
     0
  0
LTYPE
  5
43
330
5
100
AcDbSymbolTableRecord
100
AcDbLinetypeTableRecord
  2
DOT2
 70
     0
  3
Dot (.5x) ........................................
 72
    65
 73
     2
 40
0.635
 49
0.0
 74
     0
 49
-0.635
 74
     0
  0
ENDTAB
  0
TABLE
  2
LAYER
  5
2
330
0
100
AcDbSymbolTable
 70
     3
  0
LAYER
  5
10
330
2
100
AcDbSymbolTableRecord
100
AcDbLayerTableRecord
  2
0
 70
     0
 62
     7
  6
Continuous
370
    -3
390
F
  0
LAYER
  5
44
330
2
100
AcDbSymbolTableRecord
100
AcDbLayerTableRecord
  2
FORMAT
 70
     0
 62
     7
  6
Continuous
370
    -3
390
F
  0
LAYER
  5
C6
330
2
100
AcDbSymbolTableRecord
100
AcDbLayerTableRecord
  2
Defpoints
 70
     0
 62
     7
  6
Continuous
290
     0
370
    -3
390
F
  0
ENDTAB
  0
TABLE
  2
STYLE
  5
3
330
0
100
AcDbSymbolTable
 70
     2
  0
STYLE
  5
11
330
3
100
AcDbSymbolTableRecord
100
AcDbTextStyleTableRecord
  2
Standard
 70
     0
 40
0.0
 41
1.0
 50
0.0
 71
     0
 42
3.5
  3
txt
  4

  0
STYLE
  5
52
330
3
100
AcDbSymbolTableRecord
100
AcDbTextStyleTableRecord
  2
SLDTEXTSTYLE0
 70
     0
 40
0.0
 41
0.75
 50
0.0
 71
     0
 42
0.2
  3
TXT
  4

  0
ENDTAB
  0
TABLE
  2
VIEW
  5
6
330
0
100
AcDbSymbolTable
 70
     0
  0
ENDTAB
  0
TABLE
  2
UCS
  5
7
330
0
100
AcDbSymbolTable
 70
     0
  0
ENDTAB
  0
TABLE
  2
APPID
  5
9
330
0
100
AcDbSymbolTable
 70
     4
  0
APPID
  5
12
330
9
100
AcDbSymbolTableRecord
100
AcDbRegAppTableRecord
  2
ACAD
 70
     0
  0
APPID
  5
EA
330
9
100
AcDbSymbolTableRecord
100
AcDbRegAppTableRecord
  2
ACAD_DSTYLE_DIMRADIAL_EXTENSION
 70
     0
  0
APPID
  5
F9
330
9
100
AcDbSymbolTableRecord
100
AcDbRegAppTableRecord
  2
ACAD_DSTYLE_DIMFLIPARROW_SYMBOL
 70
     0
  0
APPID
  5
FA
330
9
100
AcDbSymbolTableRecord
100
AcDbRegAppTableRecord
  2
ACAD_DSTYLE_DIMFLIPARROW_WHICH_SYMBOL
 70
     0
  0
ENDTAB
  0
TABLE
  2
DIMSTYLE
  5
A
330
0
100
AcDbSymbolTable
 70
     4
100
AcDbDimStyleTable
  0
DIMSTYLE
105
27
102
{ACAD_REACTORS
330
EB
102
}
330
A
100
AcDbSymbolTableRecord
100
AcDbDimStyleTableRecord
  2
ISO-25
 70
     0
 41
2.5
 42
0.625
 43
3.75
 44
1.25
 73
     0
 74
     0
 77
     1
 78
     8
140
2.5
141
2.5
143
0.03937007874016
147
0.625
171
     3
172
     1
178
     0
271
     2
272
     2
274
     3
278
    44
283
     0
284
     8
340
11
  0
DIMSTYLE
105
53
102
{ACAD_REACTORS
330
51
330
5D
330
66
102
}
330
A
100
AcDbSymbolTableRecord
100
AcDbDimStyleTableRecord
  2
SLDDIMSTYLE0
 70
     0
 41
3.302
 44
0.0
 45
0.000000001
 73
     0
 74
     0
 77
     1
 78
    12
 79
     3
140
3.5
147
0.875
173
     1
178
     0
271
     2
272
     2
276
     2
284
    12
340
52
  0
DIMSTYLE
105
71
330
A
100
AcDbSymbolTableRecord
100
AcDbDimStyleTableRecord
  2
SLDDIMSTYLE1
 70
     0
 41
3.302
 44
0.0
 45
0.000000001
 73
     0
 74
     0
 77
     1
 78
    12
 79
     3
140
3.5
141
0.0
147
0.875
173
     1
178
     0
271
     2
272
     2
276
     2
279
     1
284
    12
340
52
  0
DIMSTYLE
105
7A
102
{ACAD_REACTORS
330
79
102
}
330
A
100
AcDbSymbolTableRecord
100
AcDbDimStyleTableRecord
  2
SLDDIMSTYLE2
 70
     0
 41
3.302
 44
0.0
 45
0.000000001
 73
     0
 74
     0
 77
     1
 78
    12
 79
     3
140
3.5
141
0.0
147
0.875
173
     1
178
     0
271
     2
272
     2
276
     2
284
    12
340
52
  0
ENDTAB
  0
TABLE
  2
BLOCK_RECORD
  5
1
330
0
100
AcDbSymbolTable
 70
     7
  0
BLOCK_RECORD
  5
1F
330
1
100
AcDbSymbolTableRecord
100
AcDbBlockTableRecord
  2
*Model_Space
340
22
  0
BLOCK_RECORD
  5
1B
330
1
100
AcDbSymbolTableRecord
100
AcDbBlockTableRecord
  2
*Paper_Space
340
1E
  0
BLOCK_RECORD
  5
23
330
1
100
AcDbSymbolTableRecord
100
AcDbBlockTableRecord
  2
*Paper_Space0
340
26
  0
BLOCK_RECORD
  5
54
330
1
100
AcDbSymbolTableRecord
100
AcDbBlockTableRecord
  2
_D
340
0
  0
BLOCK_RECORD
  5
5E
330
1
100
AcDbSymbolTableRecord
100
AcDbBlockTableRecord
  2
_D_1
340
0
  0
BLOCK_RECORD
  5
67
330
1
100
AcDbSymbolTableRecord
100
AcDbBlockTableRecord
  2
_D_2
340
0
  0
BLOCK_RECORD
  5
72
330
1
100
AcDbSymbolTableRecord
100
AcDbBlockTableRecord
  2
_D_3
340
0
  0
BLOCK_RECORD
  5
7B
330
1
100
AcDbSymbolTableRecord
100
AcDbBlockTableRecord
  2
_D_4
340
0
  0
BLOCK_RECORD
  5
EE
330
1
100
AcDbSymbolTableRecord
100
AcDbBlockTableRecord
  2
*D6
340
0
  0
ENDTAB
  0
ENDSEC
  0
SECTION
  2
BLOCKS
  0
BLOCK
  5
20
330
1F
100
AcDbEntity
  8
0
100
AcDbBlockBegin
  2
*Model_Space
 70
     0
 10
0.0
 20
0.0
 30
0.0
  3
*Model_Space
  1
*Model_Space
  0
ENDBLK
  5
21
330
1F
100
AcDbEntity
  8
0
100
AcDbBlockEnd
  0
BLOCK
  5
1C
330
1B
100
AcDbEntity
 67
     1
  8
0
100
AcDbBlockBegin
  2
*Paper_Space
 70
     0
 10
0.0
 20
0.0
 30
0.0
  3
*Paper_Space
  1
*Paper_Space
  0
ENDBLK
  5
1D
330
1B
100
AcDbEntity
 67
     1
  8
0
100
AcDbBlockEnd
  0
BLOCK
  5
24
330
23
100
AcDbEntity
  8
0
100
AcDbBlockBegin
  2
*Paper_Space0
 70
     0
 10
0.0
 20
0.0
 30
0.0
  3
*Paper_Space0
  1
*Paper_Space0
  0
ENDBLK
  5
25
330
23
100
AcDbEntity
  8
0
100
AcDbBlockEnd
  0
BLOCK
  5
55
330
54
100
AcDbEntity
  8
0
100
AcDbBlockBegin
  2
_D
 70
     0
 10
0.0
 20
0.0
 30
0.0
  3
_D
  1
_D
  0
LINE
  5
57
330
54
100
AcDbEntity
  8
FORMAT
 62
     0
370
    -2
100
AcDbLine
 10
-195.9847422680419
 20
362.5198969072163
 30
0.0
 11
-195.9847422680418
 21
555.1823494720477
 31
0.0
  0
LINE
  5
58
330
54
100
AcDbEntity
  8
FORMAT
 62
     0
370
    -2
100
AcDbLine
 10
566.0152577319582
 20
362.5198969072164
 30
0.0
 11
566.0152577319582
 21
555.1823494720477
 31
0.0
  0
LINE
  5
59
330
54
100
AcDbEntity
  8
FORMAT
 62
     0
370
    -2
100
AcDbLine
 10
-195.9847422680418
 20
555.1823494720477
 30
0.0
 11
566.0152577319582
 21
555.1823494720477
 31
0.0
  0
LINE
  5
5A
330
54
100
AcDbEntity
  8
FORMAT
 62
     0
370
    -2
100
AcDbLine
 10
-229.0047422680418
 20
555.1823494720477
 30
0.0
 11
-262.0247422680418
 21
555.1823494720477
 31
0.0
  0
LINE
  5
5B
330
54
100
AcDbEntity
  8
FORMAT
 62
     0
370
    -2
100
AcDbLine
 10
599.0352577319582
 20
555.1823494720477
 30
0.0
 11
632.0552577319581
 21
555.1823494720477
 31
0.0
  0
SOLID
  5
5C
330
54
100
AcDbEntity
  8
FORMAT
 62
     0
100
AcDbTrace
 10
-229.0047422680418
 20
549.6790161387144
 30
0.0
 11
-229.0047422680418
 21
560.685682805381
 31
0.0
 12
-195.9847422680418
 22
555.1823494720477
 32
0.0
 13
-195.9847422680418
 23
555.1823494720477
 33
0.0
  0
SOLID
  5
D0
330
54
100
AcDbEntity
  8
FORMAT
 62
     0
100
AcDbTrace
 10
599.0352577319582
 20
560.685682805381
 30
0.0
 11
599.0352577319582
 21
549.6790161387144
 31
0.0
 12
566.0152577319582
 22
555.1823494720477
 32
0.0
 13
566.0152577319582
 23
555.1823494720477
 33
0.0
  0
MTEXT
  5
D1
330
54
100
AcDbEntity
  8
FORMAT
 62
     0
100
AcDbMText
 10
194.9018332175833
 20
598.9323494720477
 30
0.0
 40
35.0
 41
0.0
 71
     2
 72
     1
  1
\A1;762
  7
SLDTEXTSTYLE0
 73
     1
 44
1.0
  0
POINT
  5
D2
330
54
100
AcDbEntity
  8
Defpoints
 62
     0
100
AcDbPoint
 10
-195.9847422680419
 20
342.5198969072163
 30
0.0
  0
POINT
  5
D8
330
54
100
AcDbEntity
  8
Defpoints
 62
     0
100
AcDbPoint
 10
566.0152577319582
 20
342.5198969072164
 30
0.0
  0
POINT
  5
D9
330
54
100
AcDbEntity
  8
Defpoints
 62
     0
100
AcDbPoint
 10
566.0152577319582
 20
555.1823494720477
 30
0.0
  0
ENDBLK
  5
56
330
54
100
AcDbEntity
  8
0
100
AcDbBlockEnd
  0
BLOCK
  5
5F
330
5E
100
AcDbEntity
  8
0
100
AcDbBlockBegin
  2
_D_1
 70
     0
 10
0.0
 20
0.0
 30
0.0
  3
_D_1
  1
_D_1
  0
LINE
  5
61
330
5E
100
AcDbEntity
  8
FORMAT
 62
     0
370
    -2
100
AcDbLine
 10
576.0152577319581
 20
352.5198969072165
 30
0.0
 11
685.4992026473261
 21
352.5198969072169
 31
0.0
  0
LINE
  5
62
330
5E
100
AcDbEntity
  8
FORMAT
 62
     0
370
    -2
100
AcDbLine
 10
596.0152577319583
 20
-104.4801030927835
 30
0.0
 11
685.4992026473277
 21
-104.4801030927832
 31
0.0
  0
LINE
  5
63
330
5E
100
AcDbEntity
  8
FORMAT
 62
     0
370
    -2
100
AcDbLine
 10
685.4992026473262
 20
319.4998969072169
 30
0.0
 11
685.4992026473276
 21
-71.46010309278316
 31
0.0
  0
SOLID
  5
64
330
5E
100
AcDbEntity
  8
FORMAT
 62
     0
100
AcDbTrace
 10
691.0025359806596
 20
319.4998969072169
 30
0.0
 11
679.9958693139929
 21
319.4998969072169
 31
0.0
 12
685.4992026473261
 22
352.5198969072169
 32
0.0
 13
685.4992026473261
 23
352.5198969072169
 33
0.0
  0
SOLID
  5
65
330
5E
100
AcDbEntity
  8
FORMAT
 62
     0
100
AcDbTrace
 10
679.9958693139943
 20
-71.46010309278317
 30
0.0
 11
691.0025359806609
 21
-71.46010309278314
 31
0.0
 12
685.4992026473277
 22
-104.4801030927832
 32
0.0
 13
685.4992026473277
 23
-104.4801030927832
 33
0.0
  0
MTEXT
  5
C7
330
5E
100
AcDbEntity
  8
FORMAT
 62
     0
100
AcDbMText
 10
641.7492026473269
 20
125.1319690483203
 30
0.0
 40
35.0
 41
0.0
 71
     2
 72
     1
  1
\A1;457
  7
SLDTEXTSTYLE0
 11
-3.482747763900710E-15
 21
1.0
 31
0.0
 73
     1
 44
1.0
  0
POINT
  5
C8
330
5E
100
AcDbEntity
  8
Defpoints
 62
     0
100
AcDbPoint
 10
556.0152577319581
 20
352.5198969072164
 30
0.0
  0
POINT
  5
C9
330
5E
100
AcDbEntity
  8
Defpoints
 62
     0
100
AcDbPoint
 10
576.0152577319583
 20
-104.4801030927836
 30
0.0
  0
POINT
  5
CA
330
5E
100
AcDbEntity
  8
Defpoints
 62
     0
100
AcDbPoint
 10
685.4992026473277
 20
-104.4801030927831
 30
0.0
  0
ENDBLK
  5
60
330
5E
100
AcDbEntity
  8
0
100
AcDbBlockEnd
  0
BLOCK
  5
68
330
67
100
AcDbEntity
  8
0
100
AcDbBlockBegin
  2
_D_2
 70
     0
 10
0.0
 20
0.0
 30
0.0
  3
_D_2
  1
_D_2
  0
LINE
  5
6A
330
67
100
AcDbEntity
  8
FORMAT
 62
     0
370
    -2
100
AcDbLine
 10
576.6402577319581
 20
352.5198969072165
 30
0.0
 11
657.4339294543005
 21
352.5198969072168
 31
0.0
  0
LINE
  5
6B
330
67
100
AcDbEntity
  8
FORMAT
 62
     0
370
    -2
100
AcDbLine
 10
1165.015257731959
 20
495.5198969072164
 30
0.0
 11
657.4339294543
 21
495.5198969072146
 31
0.0
  0
LINE
  5
6C
330
67
100
AcDbEntity
  8
FORMAT
 62
     0
370
    -2
100
AcDbLine
 10
657.4339294543
 20
495.5198969072146
 30
0.0
 11
657.4339294542996
 21
653.5046171454451
 31
0.0
  0
LINE
  5
6D
330
67
100
AcDbEntity
  8
FORMAT
 62
     0
370
    -2
100
AcDbLine
 10
657.4339294543004
 20
385.5398969072168
 30
0.0
 11
657.4339294543001
 21
462.4998969072146
 31
0.0
  0
SOLID
  5
6E
330
67
100
AcDbEntity
  8
FORMAT
 62
     0
100
AcDbTrace
 10
651.930596120967
 20
385.5398969072168
 30
0.0
 11
662.9372627876337
 21
385.5398969072168
 31
0.0
 12
657.4339294543005
 22
352.5198969072168
 32
0.0
 13
657.4339294543005
 23
352.5198969072168
 33
0.0
  0
SOLID
  5
6F
330
67
100
AcDbEntity
  8
FORMAT
 62
     0
100
AcDbTrace
 10
662.9372627876335
 20
462.4998969072146
 30
0.0
 11
651.9305961209668
 21
462.4998969072146
 31
0.0
 12
657.4339294543
 22
495.5198969072146
 32
0.0
 13
657.4339294543
 23
495.5198969072146
 33
0.0
  0
MTEXT
  5
CB
330
67
100
AcDbEntity
  8
FORMAT
 62
     0
100
AcDbMText
 10
613.6839294542997
 20
614.1296171454449
 30
0.0
 40
35.0
 41
0.0
 71
     2
 72
     1
  1
\A1;143
  7
SLDTEXTSTYLE0
 11
-3.180051404800497E-15
 21
1.0
 31
0.0
 73
     1
 44
1.0
  0
POINT
  5
CC
330
67
100
AcDbEntity
  8
Defpoints
 62
     0
100
AcDbPoint
 10
556.6402577319581
 20
352.5198969072164
 30
0.0
  0
POINT
  5
CD
330
67
100
AcDbEntity
  8
Defpoints
 62
     0
100
AcDbPoint
 10
1185.015257731959
 20
495.5198969072164
 30
0.0
  0
POINT
  5
CE
330
67
100
AcDbEntity
  8
Defpoints
 62
     0
100
AcDbPoint
 10
657.4339294543
 20
495.5198969072146
 30
0.0
  0
ENDBLK
  5
69
330
67
100
AcDbEntity
  8
0
100
AcDbBlockEnd
  0
BLOCK
  5
73
330
72
100
AcDbEntity
  8
0
100
AcDbBlockBegin
  2
_D_3
 70
     0
 10
0.0
 20
0.0
 30
0.0
  3
_D_3
  1
_D_3
  0
LINE
  5
75
330
72
100
AcDbEntity
  8
FORMAT
 62
     0
370
    -2
100
AcDbLine
 10
-190.8035735025167
 20
347.3387281416913
 30
0.0
 11
-290.0919721828257
 21
446.6271268220003
 31
0.0
  0
LINE
  5
76
330
72
100
AcDbEntity
  8
FORMAT
 62
     0
370
    -2
100
AcDbLine
 10
-167.4549075877369
 20
323.9900622269114
 30
0.0
 11
-144.1062416729571
 21
300.6413963121316
 31
0.0
  0
LINE
  5
77
330
72
100
AcDbEntity
  8
FORMAT
 62
     0
370
    -2
100
AcDbLine
 10
-167.4549075877369
 20
323.9900622269114
 30
0.0
 11
-144.1062416729571
 21
300.6413963121316
 31
0.0
  0
MTEXT
  5
78
330
72
100
AcDbEntity
  8
FORMAT
 62
     0
100
AcDbMText
 10
-252.968866170532
 20
471.3758641635295
 30
0.0
 40
35.0
 41
0.0
 71
     1
 72
     1
  1
\A1;R10
  7
SLDTEXTSTYLE0
 11
0.7071067811865475
 21
-0.7071067811865475
 31
0.0
 73
     1
 44
1.0
  0
SOLID
  5
D3
330
72
100
AcDbEntity
  8
FORMAT
 62
     0
100
AcDbTrace
 10
-163.5634632686069
 20
327.8815065460414
 30
0.0
 11
-171.3463519068668
 21
320.0986179077815
 31
0.0
 12
-190.8035735025167
 22
347.3387281416913
 32
0.0
 13
-190.8035735025167
 23
347.3387281416913
 33
0.0
  0
POINT
  5
D6
330
72
100
AcDbEntity
  8
Defpoints
 62
     0
100
AcDbPoint
 10
-190.8035735025167
 20
347.3387281416913
 30
0.0
  0
POINT
  5
D7
330
72
100
AcDbEntity
  8
Defpoints
 62
     0
100
AcDbPoint
 10
-183.7325056906511
 20
340.2676603298257
 30
0.0
  0
ENDBLK
  5
74
330
72
100
AcDbEntity
  8
0
100
AcDbBlockEnd
  0
BLOCK
  5
7C
330
7B
100
AcDbEntity
  8
0
100
AcDbBlockBegin
  2
_D_4
 70
     0
 10
0.0
 20
0.0
 30
0.0
  3
_D_4
  1
_D_4
  0
LINE
  5
7E
330
7B
100
AcDbEntity
  8
FORMAT
 62
     0
370
    -2
100
AcDbLine
 10
-178.8494772458119
 20
-127.8627002382028
 30
0.0
 11
-111.1090823815079
 21
-211.1989164267734
 31
0.0
  0
MTEXT
  5
7F
330
7B
100
AcDbEntity
  8
FORMAT
 62
     0
100
AcDbMText
 10
-118.5535998610925
 20
-132.6796048881706
 30
0.0
 40
35.0
 41
0.0
 71
     1
 72
     1
  1
\A1;R10
  7
SLDTEXTSTYLE0
 11
0.6307592985176594
 21
-0.7759785482431265
 31
0.0
 73
     1
 44
1.0
  0
SOLID
  5
80
330
7B
100
AcDbEntity
  8
FORMAT
 62
     0
100
AcDbTrace
 10
-174.5790086353139
 20
-124.3914215653607
 30
0.0
 11
-183.1199458563099
 21
-131.333978911045
 31
0.0
 12
-199.677149282865
 22
-102.2398885752148
 32
0.0
 13
-199.677149282865
 23
-102.2398885752148
 33
0.0
  0
POINT
  5
81
330
7B
100
AcDbEntity
  8
Defpoints
 62
     0
100
AcDbPoint
 10
-199.677149282865
 20
-102.2398885752148
 30
0.0
  0
POINT
  5
D4
330
7B
100
AcDbEntity
  8
Defpoints
 62
     0
100
AcDbPoint
 10
-205.9847422680416
 20
-94.48010309278354
 30
0.0
  0
ENDBLK
  5
7D
330
7B
100
AcDbEntity
  8
0
100
AcDbBlockEnd
  0
BLOCK
  5
EF
330
EE
100
AcDbEntity
  8
0
100
AcDbBlockBegin
  2
*D6
 70
     1
 10
0.0
 20
0.0
 30
0.0
  3
*D6
  1
*D6
  0
LINE
  5
F1
330
EE
100
AcDbEntity
  8
0
 62
     0
370
    -2
100
AcDbLine
 10
-380.3060966545431
 20
381.4287099709093
 30
0.0
 11
-251.3160966545431
 21
381.4287099709093
 31
0.0
  0
LINE
  5
F2
330
EE
100
AcDbEntity
  8
0
 62
     0
370
    -2
100
AcDbLine
 10
-251.3160966545431
 20
381.4287099709093
 30
0.0
 11
-222.9462739054338
 21
364.5327472228407
 31
0.0
  0
MTEXT
  5
F3
330
EE
100
AcDbEntity
  8
0
 62
     0
100
AcDbMText
 10
-342.3894299878764
 20
414.1687099709093
 30
0.0
 40
35.0
 41
0.0
 71
     5
 72
     1
  1
R10
 73
     1
 44
1.0
  0
LINE
  5
F4
330
EE
100
AcDbEntity
  8
0
 62
     0
370
    -2
100
AcDbLine
 10
-185.9847422680418
 20
342.5198969072164
 30
0.0
 11
-194.5764511563245
 21
347.6367844747721
 31
0.0
  0
SOLID
  5
F5
330
EE
100
AcDbEntity
  8
0
 62
     0
100
AcDbTrace
 10
-225.7622676967785
 20
359.8044434313225
 30
0.0
 11
-220.130280114089
 21
369.2610510143589
 31
0.0
 12
-194.5764511563245
 22
347.6367844747721
 32
0.0
 13
-194.5764511563245
 23
347.6367844747721
 33
0.0
  0
POINT
  5
F6
330
EE
100
AcDbEntity
  8
Defpoints
 62
     0
100
AcDbPoint
 10
-194.5764511563245
 20
347.6367844747721
 30
0.0
  0
POINT
  5
F7
330
EE
100
AcDbEntity
  8
Defpoints
 62
     0
100
AcDbPoint
 10
-185.9847422680418
 20
342.5198969072164
 30
0.0
  0
ENDBLK
  5
F0
330
EE
100
AcDbEntity
  8
0
100
AcDbBlockEnd
  0
ENDSEC
  0
SECTION
  2
ENTITIES
  0
LINE
  5
45
330
1F
100
AcDbEntity
  8
0
  6
Continuous
 62
     7
370
    15
100
AcDbLine
 10
576.0152577319583
 20
-104.4801030927836
 30
0.0
 11
1185.015257731959
 21
-104.4801030927836
 31
0.0
  0
ARC
  5
46
330
1F
100
AcDbEntity
  8
0
  6
Continuous
 62
     7
370
    15
100
AcDbCircle
 10
576.0152577319583
 20
-94.48010309278354
 30
0.0
 40
10.00000000000001
100
AcDbArc
 50
179.9999999999997
 51
270.0000000000007
  0
LINE
  5
47
330
1F
100
AcDbEntity
  8
0
  6
Continuous
 62
     7
370
    15
100
AcDbLine
 10
566.0152577319582
 20
342.5198969072164
 30
0.0
 11
566.0152577319583
 21
-94.48010309278348
 31
0.0
  0
ARC
  5
48
330
1F
100
AcDbEntity
  8
0
  6
Continuous
 62
     7
370
    15
100
AcDbCircle
 10
556.0152577319582
 20
342.5198969072164
 30
0.0
 40
10.00000000000006
100
AcDbArc
 50
0.0
 51
90.00000000000064
  0
LINE
  5
49
330
1F
100
AcDbEntity
  8
0
  6
Continuous
 62
     7
370
    15
100
AcDbLine
 10
-185.9847422680419
 20
352.5198969072165
 30
0.0
 11
556.0152577319581
 21
352.5198969072164
 31
0.0
  0
ARC
  5
4A
102
{ACAD_REACTORS
102
}
330
1F
100
AcDbEntity
  8
0
  6
Continuous
 62
     7
370
    15
100
AcDbCircle
 10
-185.9847422680418
 20
342.5198969072164
 30
0.0
 40
10.00000000000006
100
AcDbArc
 50
89.99999999999969
 51
180.000000000001
  0
LINE
  5
4B
330
1F
100
AcDbEntity
  8
0
  6
Continuous
 62
     7
370
    15
100
AcDbLine
 10
-195.9847422680416
 20
-94.48010309278348
 30
0.0
 11
-195.9847422680418
 21
342.5198969072164
 31
0.0
  0
ARC
  5
4C
330
1F
100
AcDbEntity
  8
0
  6
Continuous
 62
     7
370
    15
100
AcDbCircle
 10
-205.9847422680416
 20
-94.48010309278354
 30
0.0
 40
10.00000000000001
100
AcDbArc
 50
270.0000000000005
 51
0.0000000000003257
  0
LINE
  5
4D
330
1F
100
AcDbEntity
  8
0
  6
Continuous
 62
     7
370
    15
100
AcDbLine
 10
-814.9847422680413
 20
-104.4801030927836
 30
0.0
 11
-205.9847422680415
 21
-104.4801030927836
 31
0.0
  0
LINE
  5
4E
330
1F
100
AcDbEntity
  8
0
  6
Continuous
 62
     7
370
    15
100
AcDbLine
 10
-814.9847422680413
 20
495.5198969072164
 30
0.0
 11
-814.9847422680413
 21
-104.4801030927836
 31
0.0
  0
LINE
  5
4F
330
1F
100
AcDbEntity
  8
0
  6
Continuous
 62
     7
370
    15
100
AcDbLine
 10
1185.015257731959
 20
495.5198969072164
 30
0.0
 11
-814.9847422680413
 21
495.5198969072164
 31
0.0
  0
LINE
  5
50
330
1F
100
AcDbEntity
  8
0
  6
Continuous
 62
     7
370
    15
100
AcDbLine
 10
1185.015257731959
 20
-104.4801030927836
 30
0.0
 11
1185.015257731959
 21
495.5198969072164
 31
0.0
  0
DIMENSION
  5
51
330
1F
100
AcDbEntity
  8
FORMAT
100
AcDbDimension
  2
_D
 10
566.0152577319582
 20
555.1823494720477
 30
0.0
 11
194.9018332175833
 21
555.1823494720477
 31
0.0
 70
   160
  1
<>
 71
     2
 42
762.0
  3
SLDDIMSTYLE0
100
AcDbAlignedDimension
 13
-195.9847422680419
 23
342.5198969072163
 33
0.0
 14
566.0152577319582
 24
342.5198969072164
 34
0.0
 50
0.0000000000000248
100
AcDbRotatedDimension
1001
ACAD
1000
DSTYLE
1002
{
1070
    42
1040
2.0
1070
    40
1040
10.0
1002
}
1001
ACAD_DSTYLE_DIMFLIPARROW_SYMBOL
1070
   385
1070
     0
1001
ACAD_DSTYLE_DIMFLIPARROW_WHICH_SYMBOL
1070
   386
1070
     3
  0
DIMENSION
  5
5D
330
1F
100
AcDbEntity
  8
FORMAT
100
AcDbDimension
  2
_D_1
 10
685.4992026473277
 20
-104.4801030927832
 30
0.0
 11
685.4992026473269
 21
125.1319690483205
 31
0.0
 70
   160
  1
<>
 71
     2
 42
457.0000000000001
 52
-270.0
  3
SLDDIMSTYLE0
100
AcDbAlignedDimension
 13
556.0152577319581
 23
352.5198969072164
 33
0.0
 14
576.0152577319583
 24
-104.4801030927836
 34
0.0
 50
90.0000000000002
100
AcDbRotatedDimension
1001
ACAD
1000
DSTYLE
1002
{
1070
    42
1040
2.0
1070
    40
1040
10.0
1002
}
  0
DIMENSION
  5
66
330
1F
100
AcDbEntity
  8
FORMAT
100
AcDbDimension
  2
_D_2
 10
657.4339294543
 20
495.5198969072146
 30
0.0
 11
657.4339294542997
 21
614.1296171454451
 31
0.0
 70
   160
  1
<>
 71
     2
 42
142.9999999999978
  3
SLDDIMSTYLE0
100
AcDbAlignedDimension
 13
556.6402577319581
 23
352.5198969072164
 33
0.0
 14
1185.015257731959
 24
495.5198969072164
 34
0.0
 50
90.0000000000002
100
AcDbRotatedDimension
1001
ACAD
1000
DSTYLE
1002
{
1070
    42
1040
2.0
1070
    40
1040
10.0
1002
}
  0
DIMENSION
  5
79
330
1F
100
AcDbEntity
  8
FORMAT
100
AcDbDimension
  2
_D_4
 10
-205.9847422680416
 20
-94.48010309278354
 30
0.0
 11
-134.5654437951333
 21
-182.3422141639821
 31
0.0
 70
   164
  1
<>
 71
     1
 42
10.00000000000001
  3
SLDDIMSTYLE2
100
AcDbRadialDimension
 15
-199.677149282865
 25
-102.2398885752148
 35
0.0
 40
0.0
1001
ACAD
1000
DSTYLE
1002
{
1070
    40
1040
10.0
1002
}
  0
DIMENSION
  5
EB
102
{ACAD_REACTORS
102
}
102
{ACAD_XDICTIONARY
360
EC
102
}
330
1F
100
AcDbEntity
  8
0
100
AcDbDimension
  2
*D6
 10
-185.9847422680418
 20
342.5198969072164
 30
0.0
 11
-342.3894299878764
 21
381.4287099709093
 31
0.0
 70
   164
  1
<>
 71
     5
 42
10.00000000000005
  3
ISO-25
100
AcDbRadialDimension
 15
-194.5764511563245
 25
347.6367844747721
 35
0.0
 40
0.0
1001
ACAD
1000
DSTYLE
1002
{
1070
   271
1070
     0
1070
    40
1040
10.0
1070
   179
1070
     2
1070
   143
1040
0.0393700787401575
1070
    41
1040
3.302
1070
    44
1040
1.0
1070
    42
1040
1.0
1070
   147
1040
1.524
1070
    73
1070
     1
1070
    74
1070
     1
1070
   140
1040
3.5
1070
   284
1070
     0
1070
    78
1070
     0
1002
}
1001
ACAD_DSTYLE_DIMRADIAL_EXTENSION
1070
   387
1070
     1
1070
   388
1040
1.570796326794891
1070
   390
1040
3.14159265358981
  0
ENDSEC
  0
SECTION
  2
OBJECTS
  0
DICTIONARY
  5
C
330
0
100
AcDbDictionary
281
     1
  3
ACAD_DETAILVIEWSTYLE
350
DF
  3
ACAD_GROUP
350
D
  3
ACAD_IMAGE_VARS
350
C5
  3
ACAD_LAYOUT
350
1A
  3
ACAD_MLINESTYLE
350
17
  3
ACAD_PLOTSETTINGS
350
19
  3
ACAD_PLOTSTYLENAME
350
E
  3
ACAD_SCALELIST
350
9B
  3
ACAD_SECTIONVIEWSTYLE
350
E0
  3
AcDbVariableDictionary
350
DA
  3
APPDATA
350
C3
  3
DWGPROPS
350
F8
  0
DICTIONARY
  5
EC
330
EB
100
AcDbDictionary
280
     1
281
     1
  0
DICTIONARY
  5
DF
102
{ACAD_REACTORS
330
C
102
}
330
C
100
AcDbDictionary
281
     1
  0
DICTIONARY
  5
D
102
{ACAD_REACTORS
330
C
102
}
330
C
100
AcDbDictionary
281
     1
  0
RASTERVARIABLES
  5
C5
102
{ACAD_REACTORS
330
C
102
}
330
C
100
AcDbRasterVariables
 90
        0
 70
     1
 71
     1
 72
     1
  0
DICTIONARY
  5
1A
102
{ACAD_REACTORS
330
C
102
}
330
C
100
AcDbDictionary
281
     1
  3
Layout1
350
1E
  3
Layout2
350
26
  3
Model
350
22
  0
DICTIONARY
  5
17
102
{ACAD_REACTORS
330
C
102
}
330
C
100
AcDbDictionary
281
     1
  3
Standard
350
18
  0
DICTIONARY
  5
19
102
{ACAD_REACTORS
330
C
102
}
330
C
100
AcDbDictionary
281
     1
  0
ACDBDICTIONARYWDFLT
  5
E
102
{ACAD_REACTORS
330
C
102
}
330
C
100
AcDbDictionary
281
     1
  3
Normal
350
F
100
AcDbDictionaryWithDefault
340
F
  0
DICTIONARY
  5
9B
102
{ACAD_REACTORS
330
C
102
}
330
C
100
AcDbDictionary
281
     1
  3
A0
350
9C
  3
A1
350
9D
  3
A2
350
9E
  3
A3
350
9F
  3
A4
350
A0
  3
A5
350
A1
  3
A6
350
A2
  3
A7
350
A3
  3
A8
350
A4
  3
A9
350
A5
  3
B0
350
A6
  3
B1
350
A7
  3
B2
350
A8
  3
B3
350
A9
  3
B4
350
AA
  3
B5
350
AB
  3
B6
350
AC
  3
B7
350
AD
  3
B8
350
AE
  3
B9
350
AF
  3
C0
350
B0
  3
C1
350
B1
  3
C2
350
B2
  3
C3
350
B3
  3
C4
350
B4
  3
C5
350
B5
  3
C6
350
B6
  3
C7
350
B7
  3
C8
350
B8
  3
C9
350
B9
  3
D0
350
BA
  3
D1
350
BB
  3
D2
350
BC
  0
DICTIONARY
  5
E0
102
{ACAD_REACTORS
330
C
102
}
330
C
100
AcDbDictionary
281
     1
  0
DICTIONARY
  5
DA
102
{ACAD_REACTORS
330
C
102
}
330
C
100
AcDbDictionary
281
     1
  0
DICTIONARY
  5
C3
102
{ACAD_REACTORS
330
C
102
}
330
C
100
AcDbDictionary
281
     1
  0
XRECORD
  5
F8
102
{ACAD_REACTORS
330
C
102
}
330
C
100
AcDbXrecord
280
     1
  1
DWGPROPS COOKIE
  2

  3

  4

  6

  7

  8
jaxton
  9

300
=
301
=
302
=
303
=
304
=
305
=
306
=
307
=
308
=
309
=
 40
0.0
 41
2456778.176800312
 42
2456813.947341158
  1

 90
        0
  0
LAYOUT
  5
1E
102
{ACAD_REACTORS
330
1A
102
}
330
1A
100
AcDbPlotSettings
  1

  2
none_device
  4

  6

 40
0.0
 41
0.0
 42
0.0
 43
0.0
 44
0.0
 45
0.0
 46
0.0
 47
0.0
 48
0.0
 49
0.0
140
0.0
141
0.0
142
1.0
143
1.0
 70
   688
 72
     0
 73
     0
 74
     5
  7

 75
    16
147
1.0
148
0.0
149
0.0
100
AcDbLayout
  1
Layout1
 70
     1
 71
     1
 10
0.0
 20
0.0
 11
420.0
 21
297.0
 12
0.0
 22
0.0
 32
0.0
 14
1.000000000000000E+20
 24
1.000000000000000E+20
 34
1.000000000000000E+20
 15
-1.000000000000000E+20
 25
-1.000000000000000E+20
 35
-1.000000000000000E+20
146
0.0
 13
0.0
 23
0.0
 33
0.0
 16
1.0
 26
0.0
 36
0.0
 17
0.0
 27
1.0
 37
0.0
 76
     0
330
1B
  0
LAYOUT
  5
26
102
{ACAD_REACTORS
330
1A
102
}
330
1A
100
AcDbPlotSettings
  1

  2
none_device
  4

  6

 40
0.0
 41
0.0
 42
0.0
 43
0.0
 44
0.0
 45
0.0
 46
0.0
 47
0.0
 48
0.0
 49
0.0
140
0.0
141
0.0
142
1.0
143
1.0
 70
   688
 72
     0
 73
     0
 74
     5
  7

 75
    16
147
1.0
148
0.0
149
0.0
100
AcDbLayout
  1
Layout2
 70
     1
 71
     2
 10
0.0
 20
0.0
 11
0.0
 21
0.0
 12
0.0
 22
0.0
 32
0.0
 14
0.0
 24
0.0
 34
0.0
 15
0.0
 25
0.0
 35
0.0
146
0.0
 13
0.0
 23
0.0
 33
0.0
 16
1.0
 26
0.0
 36
0.0
 17
0.0
 27
1.0
 37
0.0
 76
     0
330
23
  0
LAYOUT
  5
22
102
{ACAD_REACTORS
330
1A
102
}
330
1A
100
AcDbPlotSettings
  1

  2
none_device
  4

  6

 40
0.0
 41
0.0
 42
0.0
 43
0.0
 44
0.0
 45
0.0
 46
0.0
 47
0.0
 48
0.0
 49
0.0
140
0.0
141
0.0
142
1.0
143
1.0
 70
  1712
 72
     0
 73
     0
 74
     0
  7

 75
     0
147
1.0
148
0.0
149
0.0
100
AcDbLayout
  1
Model
 70
     1
 71
     0
 10
0.0
 20
0.0
 11
420.0
 21
297.0
 12
0.0
 22
0.0
 32
0.0
 14
0.0
 24
0.0
 34
0.0
 15
420.0
 25
297.0
 35
0.0
146
0.0
 13
0.0
 23
0.0
 33
0.0
 16
1.0
 26
0.0
 36
0.0
 17
0.0
 27
1.0
 37
0.0
 76
     0
330
1F
331
29
  0
MLINESTYLE
  5
18
102
{ACAD_REACTORS
330
17
102
}
330
17
100
AcDbMlineStyle
  2
Standard
 70
     0
  3

 62
   256
 51
90.0
 52
90.0
 71
     2
 49
0.5
 62
   256
  6
BYLAYER
 49
-0.5
 62
   256
  6
BYLAYER
  0
ACDBPLACEHOLDER
  5
F
102
{ACAD_REACTORS
330
E
102
}
330
E
  0
SCALE
  5
9C
102
{ACAD_REACTORS
330
9B
102
}
330
9B
100
AcDbScale
 70
     0
300
1:1
140
1.0
141
1.0
290
     1
  0
SCALE
  5
9D
102
{ACAD_REACTORS
330
9B
102
}
330
9B
100
AcDbScale
 70
     0
300
1:2
140
1.0
141
2.0
290
     0
  0
SCALE
  5
9E
102
{ACAD_REACTORS
330
9B
102
}
330
9B
100
AcDbScale
 70
     0
300
1:4
140
1.0
141
4.0
290
     0
  0
SCALE
  5
9F
102
{ACAD_REACTORS
330
9B
102
}
330
9B
100
AcDbScale
 70
     0
300
1:5
140
1.0
141
5.0
290
     0
  0
SCALE
  5
A0
102
{ACAD_REACTORS
330
9B
102
}
330
9B
100
AcDbScale
 70
     0
300
1:8
140
1.0
141
8.0
290
     0
  0
SCALE
  5
A1
102
{ACAD_REACTORS
330
9B
102
}
330
9B
100
AcDbScale
 70
     0
300
1:10
140
1.0
141
10.0
290
     0
  0
SCALE
  5
A2
102
{ACAD_REACTORS
330
9B
102
}
330
9B
100
AcDbScale
 70
     0
300
1:16
140
1.0
141
16.0
290
     0
  0
SCALE
  5
A3
102
{ACAD_REACTORS
330
9B
102
}
330
9B
100
AcDbScale
 70
     0
300
1:20
140
1.0
141
20.0
290
     0
  0
SCALE
  5
A4
102
{ACAD_REACTORS
330
9B
102
}
330
9B
100
AcDbScale
 70
     0
300
1:30
140
1.0
141
30.0
290
     0
  0
SCALE
  5
A5
102
{ACAD_REACTORS
330
9B
102
}
330
9B
100
AcDbScale
 70
     0
300
1:40
140
1.0
141
40.0
290
     0
  0
SCALE
  5
A6
102
{ACAD_REACTORS
330
9B
102
}
330
9B
100
AcDbScale
 70
     0
300
1:50
140
1.0
141
50.0
290
     0
  0
SCALE
  5
A7
102
{ACAD_REACTORS
330
9B
102
}
330
9B
100
AcDbScale
 70
     0
300
1:100
140
1.0
141
100.0
290
     0
  0
SCALE
  5
A8
102
{ACAD_REACTORS
330
9B
102
}
330
9B
100
AcDbScale
 70
     0
300
2:1
140
2.0
141
1.0
290
     0
  0
SCALE
  5
A9
102
{ACAD_REACTORS
330
9B
102
}
330
9B
100
AcDbScale
 70
     0
300
4:1
140
4.0
141
1.0
290
     0
  0
SCALE
  5
AA
102
{ACAD_REACTORS
330
9B
102
}
330
9B
100
AcDbScale
 70
     0
300
8:1
140
8.0
141
1.0
290
     0
  0
SCALE
  5
AB
102
{ACAD_REACTORS
330
9B
102
}
330
9B
100
AcDbScale
 70
     0
300
10:1
140
10.0
141
1.0
290
     0
  0
SCALE
  5
AC
102
{ACAD_REACTORS
330
9B
102
}
330
9B
100
AcDbScale
 70
     0
300
100:1
140
100.0
141
1.0
290
     0
  0
SCALE
  5
AD
102
{ACAD_REACTORS
330
9B
102
}
330
9B
100
AcDbScale
 70
     0
300
1/128" = 1'-0"
140
0.0078125
141
12.0
290
     0
  0
SCALE
  5
AE
102
{ACAD_REACTORS
330
9B
102
}
330
9B
100
AcDbScale
 70
     0
300
1/64" = 1'-0"
140
0.015625
141
12.0
290
     0
  0
SCALE
  5
AF
102
{ACAD_REACTORS
330
9B
102
}
330
9B
100
AcDbScale
 70
     0
300
1/32" = 1'-0"
140
0.03125
141
12.0
290
     0
  0
SCALE
  5
B0
102
{ACAD_REACTORS
330
9B
102
}
330
9B
100
AcDbScale
 70
     0
300
1/16" = 1'-0"
140
0.0625
141
12.0
290
     0
  0
SCALE
  5
B1
102
{ACAD_REACTORS
330
9B
102
}
330
9B
100
AcDbScale
 70
     0
300
3/32" = 1'-0"
140
0.09375
141
12.0
290
     0
  0
SCALE
  5
B2
102
{ACAD_REACTORS
330
9B
102
}
330
9B
100
AcDbScale
 70
     0
300
1/8" = 1'-0"
140
0.125
141
12.0
290
     0
  0
SCALE
  5
B3
102
{ACAD_REACTORS
330
9B
102
}
330
9B
100
AcDbScale
 70
     0
300
3/16" = 1'-0"
140
0.1875
141
12.0
290
     0
  0
SCALE
  5
B4
102
{ACAD_REACTORS
330
9B
102
}
330
9B
100
AcDbScale
 70
     0
300
1/4" = 1'-0"
140
0.25
141
12.0
290
     0
  0
SCALE
  5
B5
102
{ACAD_REACTORS
330
9B
102
}
330
9B
100
AcDbScale
 70
     0
300
3/8" = 1'-0"
140
0.375
141
12.0
290
     0
  0
SCALE
  5
B6
102
{ACAD_REACTORS
330
9B
102
}
330
9B
100
AcDbScale
 70
     0
300
1/2" = 1'-0"
140
0.5
141
12.0
290
     0
  0
SCALE
  5
B7
102
{ACAD_REACTORS
330
9B
102
}
330
9B
100
AcDbScale
 70
     0
300
3/4" = 1'-0"
140
0.75
141
12.0
290
     0
  0
SCALE
  5
B8
102
{ACAD_REACTORS
330
9B
102
}
330
9B
100
AcDbScale
 70
     0
300
1" = 1'-0"
140
1.0
141
12.0
290
     0
  0
SCALE
  5
B9
102
{ACAD_REACTORS
330
9B
102
}
330
9B
100
AcDbScale
 70
     0
300
1-1/2" = 1'-0"
140
1.5
141
12.0
290
     0
  0
SCALE
  5
BA
102
{ACAD_REACTORS
330
9B
102
}
330
9B
100
AcDbScale
 70
     0
300
3" = 1'-0"
140
3.0
141
12.0
290
     0
  0
SCALE
  5
BB
102
{ACAD_REACTORS
330
9B
102
}
330
9B
100
AcDbScale
 70
     0
300
6" = 1'-0"
140
6.0
141
12.0
290
     0
  0
SCALE
  5
BC
102
{ACAD_REACTORS
330
9B
102
}
330
9B
100
AcDbScale
 70
     0
300
1'-0" = 1'-0"
140
12.0
141
12.0
290
     0
  0
ENDSEC
  0
EOF
