  0
SECTION
  2
HEADER
  9
$ACADVER
  1
AC1015
  9
$ACADMAINTVER
 70
    20
  9
$DWGCODEPAGE
  3
ANSI_1252
  9
$INSBASE
 10
4775.578524181726
 20
81.25556550572492
 30
0.0
  9
$EXTMIN
 10
3888.554457051986
 20
-687.7483212345981
 30
0.0
  9
$EXTMAX
 10
5923.663209694931
 20
751.6372088307625
 30
0.0
  9
$LIMMIN
 10
0.0
 20
0.0
  9
$LIMMAX
 10
100.0
 20
100.0
  9
$ORTHOMODE
 70
     0
  9
$REGENMODE
 70
     1
  9
$FILLMODE
 70
     1
  9
$QTEXTMODE
 70
     0
  9
$MIRRTEXT
 70
     1
  9
$LTSCALE
 40
0.3367003367003367
  9
$ATTMODE
 70
     1
  9
$TEXTSIZE
 40
10.0
  9
$TRACEWID
 40
1.0
  9
$TEXTSTYLE
  7
STANDARD
  9
$CLAYER
  8
0
  9
$CELTYPE
  6
BYLAYER
  9
$CECOLOR
 62
   256
  9
$CELTSCALE
 40
10.0
  9
$DISPSILH
 70
     0
  9
$DIMSCALE
 40
1.0
  9
$DIMASZ
 40
50.0
  9
$DIMEXO
 40
50.0
  9
$DIMDLI
 40
0.38
  9
$DIMRND
 40
0.0
  9
$DIMDLE
 40
0.0
  9
$DIMEXE
 40
3.0
  9
$DIMTP
 40
0.0
  9
$DIMTM
 40
3.0
  9
$DIMTXT
 40
50.0
  9
$DIMCEN
 40
7.0
  9
$DIMTSZ
 40
0.0
  9
$DIMTOL
 70
     0
  9
$DIMLIM
 70
     0
  9
$DIMTIH
 70
     1
  9
$DIMTOH
 70
     1
  9
$DIMSE1
 70
     0
  9
$DIMSE2
 70
     0
  9
$DIMTAD
 70
     0
  9
$DIMZIN
 70
     9
  9
$DIMBLK
  1

  9
$DIMASO
 70
     1
  9
$DIMSHO
 70
     1
  9
$DIMPOST
  1

  9
$DIMAPOST
  1

  9
$DIMALT
 70
     0
  9
$DIMALTD
 70
     2
  9
$DIMALTF
 40
25.4
  9
$DIMLFAC
 40
1.0
  9
$DIMTOFL
 70
     1
  9
$DIMTVP
 40
0.0
  9
$DIMTIX
 70
     0
  9
$DIMSOXD
 70
     0
  9
$DIMSAH
 70
     0
  9
$DIMBLK1
  1

  9
$DIMBLK2
  1

  9
$DIMSTYLE
  2
STANDARD
  9
$DIMCLRD
 70
     0
  9
$DIMCLRE
 70
     0
  9
$DIMCLRT
 70
   256
  9
$DIMTFAC
 40
1.0
  9
$DIMGAP
 40
5.0
  9
$DIMJUST
 70
     0
  9
$DIMSD1
 70
     0
  9
$DIMSD2
 70
     0
  9
$DIMTOLJ
 70
     1
  9
$DIMTZIN
 70
     0
  9
$DIMALTZ
 70
     0
  9
$DIMALTTZ
 70
     0
  9
$DIMUPT
 70
     1
  9
$DIMDEC
 70
     1
  9
$DIMTDEC
 70
     0
  9
$DIMALTU
 70
     2
  9
$DIMALTTD
 70
     2
  9
$DIMTXSTY
  7
STANDARD
  9
$DIMAUNIT
 70
     0
  9
$DIMADEC
 70
     0
  9
$DIMALTRND
 40
0.0
  9
$DIMAZIN
 70
     0
  9
$DIMDSEP
 70
    46
  9
$DIMATFIT
 70
     3
  9
$DIMFRAC
 70
     0
  9
$DIMLDRBLK
  1

  9
$DIMLUNIT
 70
     2
  9
$DIMLWD
 70
    -2
  9
$DIMLWE
 70
    -2
  9
$DIMTMOVE
 70
     0
  9
$LUNITS
 70
     2
  9
$LUPREC
 70
     4
  9
$SKETCHINC
 40
1.0
  9
$FILLETRAD
 40
95.0
  9
$AUNITS
 70
     0
  9
$AUPREC
 70
     0
  9
$MENU
  1
.
  9
$ELEVATION
 40
0.0
  9
$PELEVATION
 40
0.0
  9
$THICKNESS
 40
0.0
  9
$LIMCHECK
 70
     0
  9
$CHAMFERA
 40
3.367003367003367
  9
$CHAMFERB
 40
3.367003367003367
  9
$CHAMFERC
 40
6.734006734006734
  9
$CHAMFERD
 40
0.0
  9
$SKPOLY
 70
     0
  9
$TDCREATE
 40
2450522.611592361
  9
$TDUCREATE
 40
2450522.174092361
  9
$TDUPDATE
 40
2455531.474435243
  9
$TDUUPDATE
 40
2455531.036935243
  9
$TDINDWG
 40
2.7541508449
  9
$TDUSRTIMER
 40
2.7541508449
  9
$USRTIMER
 70
     1
  9
$ANGBASE
 50
0.0
  9
$ANGDIR
 70
     0
  9
$PDMODE
 70
     0
  9
$PDSIZE
 40
0.0
  9
$PLINEWID
 40
0.0
  9
$SPLFRAME
 70
     0
  9
$SPLINETYPE
 70
     6
  9
$SPLINESEGS
 70
     8
  9
$HANDSEED
  5
228
  9
$SURFTAB1
 70
     6
  9
$SURFTAB2
 70
     6
  9
$SURFTYPE
 70
     6
  9
$SURFU
 70
     6
  9
$SURFV
 70
     6
  9
$UCSBASE
  2

  9
$UCSNAME
  2

  9
$UCSORG
 10
0.0
 20
0.0
 30
0.0
  9
$UCSXDIR
 10
1.0
 20
0.0
 30
0.0
  9
$UCSYDIR
 10
0.0
 20
1.0
 30
0.0
  9
$UCSORTHOREF
  2

  9
$UCSORTHOVIEW
 70
     0
  9
$UCSORGTOP
 10
0.0
 20
0.0
 30
0.0
  9
$UCSORGBOTTOM
 10
0.0
 20
0.0
 30
0.0
  9
$UCSORGLEFT
 10
0.0
 20
0.0
 30
0.0
  9
$UCSORGRIGHT
 10
0.0
 20
0.0
 30
0.0
  9
$UCSORGFRONT
 10
0.0
 20
0.0
 30
0.0
  9
$UCSORGBACK
 10
0.0
 20
0.0
 30
0.0
  9
$PUCSBASE
  2

  9
$PUCSNAME
  2

  9
$PUCSORG
 10
0.0
 20
0.0
 30
0.0
  9
$PUCSXDIR
 10
1.0
 20
0.0
 30
0.0
  9
$PUCSYDIR
 10
0.0
 20
1.0
 30
0.0
  9
$PUCSORTHOREF
  2

  9
$PUCSORTHOVIEW
 70
     0
  9
$PUCSORGTOP
 10
0.0
 20
0.0
 30
0.0
  9
$PUCSORGBOTTOM
 10
0.0
 20
0.0
 30
0.0
  9
$PUCSORGLEFT
 10
0.0
 20
0.0
 30
0.0
  9
$PUCSORGRIGHT
 10
0.0
 20
0.0
 30
0.0
  9
$PUCSORGFRONT
 10
0.0
 20
0.0
 30
0.0
  9
$PUCSORGBACK
 10
0.0
 20
0.0
 30
0.0
  9
$USERI1
 70
     0
  9
$USERI2
 70
     0
  9
$USERI3
 70
     0
  9
$USERI4
 70
     0
  9
$USERI5
 70
     0
  9
$USERR1
 40
0.0
  9
$USERR2
 40
0.0
  9
$USERR3
 40
0.0
  9
$USERR4
 40
0.0
  9
$USERR5
 40
0.0
  9
$WORLDVIEW
 70
     1
  9
$SHADEDGE
 70
     3
  9
$SHADEDIF
 70
    70
  9
$TILEMODE
 70
     1
  9
$MAXACTVP
 70
    16
  9
$PINSBASE
 10
0.0
 20
0.0
 30
0.0
  9
$PLIMCHECK
 70
     0
  9
$PEXTMIN
 10
1.000000000000000E+20
 20
1.000000000000000E+20
 30
1.000000000000000E+20
  9
$PEXTMAX
 10
-1.000000000000000E+20
 20
-1.000000000000000E+20
 30
-1.000000000000000E+20
  9
$PLIMMIN
 10
0.0
 20
0.0
  9
$PLIMMAX
 10
420.0
 20
297.0
  9
$UNITMODE
 70
     0
  9
$VISRETAIN
 70
     0
  9
$PLINEGEN
 70
     0
  9
$PSLTSCALE
 70
     1
  9
$TREEDEPTH
 70
  3020
  9
$CMLSTYLE
  2
STANDARD
  9
$CMLJUST
 70
     0
  9
$CMLSCALE
 40
1.0
  9
$PROXYGRAPHICS
 70
     1
  9
$MEASUREMENT
 70
     0
  9
$CELWEIGHT
370
    -1
  9
$ENDCAPS
280
     0
  9
$JOINSTYLE
280
     0
  9
$LWDISPLAY
290
     0
  9
$INSUNITS
 70
     0
  9
$HYPERLINKBASE
  1

  9
$STYLESHEET
  1

  9
$XEDIT
290
     1
  9
$CEPSNTYPE
380
     0
  9
$PSTYLEMODE
290
     1
  9
$FINGERPRINTGUID
  2
{0554B222-A76C-456A-9ED7-401023F273E0}
  9
$VERSIONGUID
  2
{CCAE5CB2-4D63-4D54-941F-3E810F826270}
  9
$EXTNAMES
290
     1
  9
$PSVPSCALE
 40
0.0
  9
$OLESTARTUP
290
     0
  0
ENDSEC
  0
SECTION
  2
CLASSES
  0
CLASS
  1
ACDBDICTIONARYWDFLT
  2
AcDbDictionaryWithDefault
  3
ObjectDBX Classes
 90
        0
280
     0
281
     0
  0
CLASS
  1
DICTIONARYVAR
  2
AcDbDictionaryVar
  3
ObjectDBX Classes
 90
        0
280
     0
281
     0
  0
CLASS
  1
ACDBPLACEHOLDER
  2
AcDbPlaceHolder
  3
ObjectDBX Classes
 90
        0
280
     0
281
     0
  0
CLASS
  1
LAYOUT
  2
AcDbLayout
  3
ObjectDBX Classes
 90
        0
280
     0
281
     0
  0
ENDSEC
  0
SECTION
  2
TABLES
  0
TABLE
  2
VPORT
  5
19
330
0
100
AcDbSymbolTable
 70
     3
  0
VPORT
  5
220
330
19
100
AcDbSymbolTableRecord
100
AcDbViewportTableRecord
  2
*Active
 70
     0
 10
0.0
 20
0.0
 11
1.0
 21
1.0
 12
5165.829497938627
 22
78.28912732642709
 13
0.0
 23
0.0
 14
2.0
 24
2.0
 15
0.0
 25
0.0
 16
0.0
 26
0.0
 36
1.0
 17
0.0
 27
0.0
 37
0.0
 40
1275.882523543656
 41
1.985166872682323
 42
50.0
 43
0.0
 44
0.0
 50
0.0
 51
0.0
 71
     0
 72
   100
 73
     1
 74
     0
 75
     0
 76
     0
 77
     0
 78
     1
281
     0
 65
     1
110
0.0
120
0.0
130
0.0
111
1.0
121
0.0
131
0.0
112
0.0
122
1.0
132
0.0
 79
     0
146
0.0
  0
ENDTAB
  0
TABLE
  2
LTYPE
  5
14
330
0
100
AcDbSymbolTable
 70
     1
  0
LTYPE
  5
15
330
14
100
AcDbSymbolTableRecord
100
AcDbLinetypeTableRecord
  2
BYBLOCK
 70
     0
  3

 72
    65
 73
     0
 40
0.0
  0
LTYPE
  5
16
330
14
100
AcDbSymbolTableRecord
100
AcDbLinetypeTableRecord
  2
BYLAYER
 70
     0
  3

 72
    65
 73
     0
 40
0.0
  0
LTYPE
  5
8
330
14
100
AcDbSymbolTableRecord
100
AcDbLinetypeTableRecord
  2
CONTINUOUS
 70
     0
  3
Solid line
 72
    65
 73
     0
 40
0.0
  0
ENDTAB
  0
TABLE
  2
LAYER
  5
10
330
0
100
AcDbSymbolTable
 70
     4
  0
LAYER
  5
4
330
10
100
AcDbSymbolTableRecord
100
AcDbLayerTableRecord
  2
0
 70
     0
 62
     7
  6
CONTINUOUS
370
    -3
390
5
  0
LAYER
  5
2A
330
10
100
AcDbSymbolTableRecord
100
AcDbLayerTableRecord
  2
DIM
 70
     0
 62
     4
  6
CONTINUOUS
370
    -3
390
5
  0
LAYER
  5
27
330
10
100
AcDbSymbolTableRecord
100
AcDbLayerTableRecord
  2
BORDER
 70
     0
 62
     7
  6
CONTINUOUS
370
    -3
390
5
  0
LAYER
  5
35
330
10
100
AcDbSymbolTableRecord
100
AcDbLayerTableRecord
  2
DEFPOINTS
 70
     0
 62
     7
  6
CONTINUOUS
290
     0
370
    -3
390
5
  0
ENDTAB
  0
TABLE
  2
STYLE
  5
11
330
0
100
AcDbSymbolTable
 70
     3
  0
STYLE
  5
12
330
11
100
AcDbSymbolTableRecord
100
AcDbTextStyleTableRecord
  2
STANDARD
 70
     0
 40
0.0
 41
1.0
 50
0.0
 71
     0
 42
10.0
  3
ISOCP
  4

  0
STYLE
  5
28
330
11
100
AcDbSymbolTableRecord
100
AcDbTextStyleTableRecord
  2
ITEMTEXT
 70
     0
 40
3.5
 41
1.0
 50
0.0
 71
     0
 42
0.2
  3
ROMANS.shx
  4

  0
STYLE
  5
4D
330
11
100
AcDbSymbolTableRecord
100
AcDbTextStyleTableRecord
  2
STYLE1
 70
     0
 40
15.0
 41
1.0
 50
0.0
 71
     0
 42
15.0
  3
ARIAL.TTF
  4

1001
ACAD
1000
Arial
1071
       34
  0
ENDTAB
  0
TABLE
  2
VIEW
  5
17
330
0
100
AcDbSymbolTable
 70
     0
  0
ENDTAB
  0
TABLE
  2
UCS
  5
18
330
0
100
AcDbSymbolTable
 70
     0
  0
ENDTAB
  0
TABLE
  2
APPID
  5
1B
330
0
100
AcDbSymbolTable
 70
     1
  0
APPID
  5
1C
330
1B
100
AcDbSymbolTableRecord
100
AcDbRegAppTableRecord
  2
ACAD
 70
     0
  0
ENDTAB
  0
TABLE
  2
DIMSTYLE
  5
1D
330
0
100
AcDbSymbolTable
 70
     1
100
AcDbDimStyleTable
 71
     1
340
1E
  0
DIMSTYLE
105
1E
102
{ACAD_REACTORS
330
197
330
1A5
330
29
102
}
330
1D
100
AcDbSymbolTableRecord
100
AcDbDimStyleTableRecord
  2
STANDARD
 70
     0
340
12
  0
ENDTAB
  0
TABLE
  2
BLOCK_RECORD
  5
1
330
0
100
AcDbSymbolTable
 70
     3
  0
BLOCK_RECORD
  5
2
330
1
100
AcDbSymbolTableRecord
100
AcDbBlockTableRecord
  2
*MODEL_SPACE
340
A
  0
BLOCK_RECORD
  5
C
330
1
100
AcDbSymbolTableRecord
100
AcDbBlockTableRecord
  2
*PAPER_SPACE
340
F
  0
BLOCK_RECORD
  5
198
330
1
100
AcDbSymbolTableRecord
100
AcDbBlockTableRecord
  2
*D0
340
0
  0
BLOCK_RECORD
  5
1E3
330
1
100
AcDbSymbolTableRecord
100
AcDbBlockTableRecord
  2
*D1
340
0
  0
BLOCK_RECORD
  5
1F0
330
1
100
AcDbSymbolTableRecord
100
AcDbBlockTableRecord
  2
*D2
340
0
  0
ENDTAB
  0
ENDSEC
  0
SECTION
  2
BLOCKS
  0
BLOCK
  5
3
330
2
100
AcDbEntity
  8
0
100
AcDbBlockBegin
  2
*MODEL_SPACE
 70
     0
 10
0.0
 20
0.0
 30
0.0
  3
*MODEL_SPACE
  1

  0
ENDBLK
  5
9
330
2
100
AcDbEntity
  8
0
100
AcDbBlockEnd
  0
BLOCK
  5
D
330
C
100
AcDbEntity
 67
     1
  8
0
100
AcDbBlockBegin
  2
*PAPER_SPACE
 70
     0
 10
0.0
 20
0.0
 30
0.0
  3
*PAPER_SPACE
  1

  0
ENDBLK
  5
E
330
C
100
AcDbEntity
 67
     1
  8
0
100
AcDbBlockEnd
  0
BLOCK
  5
199
330
198
100
AcDbEntity
  8
0
 48
10.0
100
AcDbBlockBegin
  2
*D0
 70
     1
 10
0.0
 20
0.0
 30
0.0
  3
*D0
  1

  0
LINE
  5
19A
330
198
100
AcDbEntity
  8
DIM
 62
     0
 48
10.0
370
    -2
100
AcDbLine
 10
4307.018976738696
 20
-294.1034394493224
 30
0.0
 11
4357.018976738699
 21
-294.1034394493224
 31
0.0
  0
LINE
  5
19B
330
198
100
AcDbEntity
  8
DIM
 62
     0
 48
10.0
370
    -2
100
AcDbLine
 10
4357.018976738699
 20
-294.1034394493224
 30
0.0
 11
4409.318065133243
 21
-208.8939596743514
 31
0.0
  0
MTEXT
  5
19C
330
198
100
AcDbEntity
  8
DIM
 48
10.0
100
AcDbMText
 10
4253.396084570407
 20
-294.1034394493229
 30
0.0
 40
50.0
 41
0.0
 71
     5
 72
     1
  1
\A1;R95
 73
     1
 44
1.0
1001
ACAD
1000
MTEXTBEGIN
1070
    73
1070
     1
1070
    44
1040
1.0
1070
    74
1070
     0
1000
MTEXTEND
  0
LINE
  5
19D
330
198
100
AcDbEntity
  8
DIM
 62
     0
 48
10.0
370
    -2
100
AcDbLine
 10
4485.167483349855
 20
-85.31456917495711
 30
0.0
 11
4435.473036932075
 21
-166.2803767435262
 31
0.0
  0
SOLID
  5
19E
330
198
100
AcDbEntity
  8
DIM
 62
     0
 48
10.0
100
AcDbTrace
 10
4402.215801311438
 20
-204.5347977078793
 30
0.0
 11
4416.420328955047
 21
-213.2531216408233
 31
0.0
 12
4435.473036932075
 22
-166.2803767435262
 32
0.0
 13
4435.473036932075
 23
-166.2803767435262
 33
0.0
  0
POINT
  5
19F
330
198
100
AcDbEntity
  8
DEFPOINTS
 62
     0
 48
10.0
100
AcDbPoint
 10
4435.473036932075
 20
-166.2803767435262
 30
0.0
  0
POINT
  5
1A0
330
198
100
AcDbEntity
  8
DEFPOINTS
 62
     0
 48
10.0
100
AcDbPoint
 10
4485.167483349855
 20
-85.31456917495711
 30
0.0
  0
ENDBLK
  5
1A1
330
198
100
AcDbEntity
  8
0
 48
10.0
100
AcDbBlockEnd
  0
BLOCK
  5
1EE
330
1E3
100
AcDbEntity
  8
0
 48
10.0
100
AcDbBlockBegin
  2
*D1
 70
     1
 10
0.0
 20
0.0
 30
0.0
  3
*D1
  1

  0
LINE
  5
1E4
330
1E3
100
AcDbEntity
  8
DIM
 62
     0
 48
10.0
370
    -2
100
AcDbLine
 10
5405.167483349856
 20
279.6854308250395
 30
0.0
 11
5688.792156267832
 21
279.6854308250394
 31
0.0
  0
LINE
  5
1E5
330
1E3
100
AcDbEntity
  8
DIM
 62
     0
 48
10.0
370
    -2
100
AcDbLine
 10
5405.167483349856
 20
-180.3145691749605
 30
0.0
 11
5688.792156267832
 21
-180.3145691749606
 31
0.0
  0
LINE
  5
1E6
330
1E3
100
AcDbEntity
  8
DIM
 62
     0
 48
10.0
370
    -2
100
AcDbLine
 10
5685.792156267832
 20
229.6854308250394
 30
0.0
 11
5685.792156267832
 21
95.52850380970811
 31
0.0
  0
LINE
  5
1E7
330
1E3
100
AcDbEntity
  8
DIM
 62
     0
 48
10.0
370
    -2
100
AcDbLine
 10
5685.792156267832
 20
-130.3145691749606
 30
0.0
 11
5685.792156267832
 21
35.52850380970812
 31
0.0
  0
SOLID
  5
1E8
330
1E3
100
AcDbEntity
  8
DIM
 62
     0
 48
10.0
100
AcDbTrace
 10
5677.458822934499
 20
229.6854308250394
 30
0.0
 11
5694.125489601165
 21
229.6854308250394
 31
0.0
 12
5685.792156267832
 22
279.6854308250394
 32
0.0
 13
5685.792156267832
 23
279.6854308250394
 33
0.0
  0
SOLID
  5
1E9
330
1E3
100
AcDbEntity
  8
DIM
 62
     0
 48
10.0
100
AcDbTrace
 10
5677.458822934499
 20
-130.3145691749606
 30
0.0
 11
5694.125489601165
 21
-130.3145691749606
 31
0.0
 12
5685.792156267832
 22
-180.3145691749606
 32
0.0
 13
5685.792156267832
 23
-180.3145691749606
 33
0.0
  0
MTEXT
  5
1EA
330
1E3
100
AcDbEntity
  8
DIM
 48
10.0
100
AcDbMText
 10
5685.792156267832
 20
65.52850380970903
 30
0.0
 40
50.0
 41
0.0
 71
     5
 72
     1
  1
\A1;460
 73
     1
 44
1.0
1001
ACAD
1000
MTEXTBEGIN
1070
    73
1070
     1
1070
    44
1040
1.0
1070
    74
1070
     0
1000
MTEXTEND
  0
POINT
  5
1EB
330
1E3
100
AcDbEntity
  8
DEFPOINTS
 62
     0
 48
10.0
100
AcDbPoint
 10
5355.167483349855
 20
279.6854308250395
 30
0.0
  0
POINT
  5
1EC
330
1E3
100
AcDbEntity
  8
DEFPOINTS
 62
     0
 48
10.0
100
AcDbPoint
 10
5355.167483349855
 20
-180.3145691749605
 30
0.0
  0
POINT
  5
1ED
330
1E3
100
AcDbEntity
  8
DEFPOINTS
 62
     0
 48
10.0
100
AcDbPoint
 10
5685.792156267832
 20
-180.3145691749606
 30
0.0
  0
ENDBLK
  5
1EF
330
1E3
100
AcDbEntity
  8
0
 48
10.0
100
AcDbBlockEnd
  0
BLOCK
  5
1FB
330
1F0
100
AcDbEntity
  8
0
 48
10.0
100
AcDbBlockBegin
  2
*D2
 70
     1
 10
0.0
 20
0.0
 30
0.0
  3
*D2
  1

  0
LINE
  5
1F1
330
1F0
100
AcDbEntity
  8
DIM
 62
     0
 48
10.0
370
    -2
100
AcDbLine
 10
4390.167483349855
 20
234.6854308250395
 30
0.0
 11
4390.167483349855
 21
508.961534752063
 31
0.0
  0
LINE
  5
1F2
330
1F0
100
AcDbEntity
  8
DIM
 62
     0
 48
10.0
370
    -2
100
AcDbLine
 10
5450.167483349855
 20
234.6854308250395
 30
0.0
 11
5450.167483349855
 21
508.961534752063
 31
0.0
  0
LINE
  5
1F3
330
1F0
100
AcDbEntity
  8
DIM
 62
     0
 48
10.0
370
    -2
100
AcDbLine
 10
4440.167483349855
 20
505.961534752063
 30
0.0
 11
4903.155481749516
 21
505.961534752063
 31
0.0
  0
LINE
  5
1F4
330
1F0
100
AcDbEntity
  8
DIM
 62
     0
 48
10.0
370
    -2
100
AcDbLine
 10
5400.167483349855
 20
505.961534752063
 30
0.0
 11
5028.194851828256
 21
505.961534752063
 31
0.0
  0
SOLID
  5
1F5
330
1F0
100
AcDbEntity
  8
DIM
 62
     0
 48
10.0
100
AcDbTrace
 10
4440.167483349855
 20
514.2948680853963
 30
0.0
 11
4440.167483349855
 21
497.6282014187296
 31
0.0
 12
4390.167483349855
 22
505.961534752063
 32
0.0
 13
4390.167483349855
 23
505.961534752063
 33
0.0
  0
SOLID
  5
1F6
330
1F0
100
AcDbEntity
  8
DIM
 62
     0
 48
10.0
100
AcDbTrace
 10
5400.167483349855
 20
514.2948680853963
 30
0.0
 11
5400.167483349855
 21
497.6282014187296
 31
0.0
 12
5450.167483349855
 22
505.961534752063
 32
0.0
 13
5450.167483349855
 23
505.961534752063
 33
0.0
  0
MTEXT
  5
1F7
330
1F0
100
AcDbEntity
  8
DIM
 48
10.0
100
AcDbMText
 10
4965.675166788887
 20
505.961534752063
 30
0.0
 40
50.0
 41
0.0
 71
     5
 72
     1
  1
\A1;1060
 73
     1
 44
1.0
1001
ACAD
1000
MTEXTBEGIN
1070
    73
1070
     1
1070
    44
1040
1.0
1070
    74
1070
     0
1000
MTEXTEND
  0
POINT
  5
1F8
330
1F0
100
AcDbEntity
  8
DEFPOINTS
 62
     0
 48
10.0
100
AcDbPoint
 10
4390.167483349855
 20
184.6854308250394
 30
0.0
  0
POINT
  5
1F9
330
1F0
100
AcDbEntity
  8
DEFPOINTS
 62
     0
 48
10.0
100
AcDbPoint
 10
5450.167483349855
 20
184.6854308250394
 30
0.0
  0
POINT
  5
1FA
330
1F0
100
AcDbEntity
  8
DEFPOINTS
 62
     0
 48
10.0
100
AcDbPoint
 10
5450.167483349855
 20
505.961534752063
 30
0.0
  0
ENDBLK
  5
1FC
330
1F0
100
AcDbEntity
  8
0
 48
10.0
100
AcDbBlockEnd
  0
ENDSEC
  0
SECTION
  2
ENTITIES
  0
DIMENSION
  5
29
330
2
100
AcDbEntity
  8
DIM
 48
10.0
100
AcDbDimension
  2
*D2
 10
5450.167483349855
 20
505.961534752063
 30
0.0
 11
4965.675166788887
 21
505.961534752063
 31
0.0
 70
   160
 71
     5
 42
1060.0
  3
STANDARD
100
AcDbAlignedDimension
 13
4390.167483349855
 23
184.6854308250394
 33
0.0
 14
5450.167483349855
 24
184.6854308250394
 34
0.0
100
AcDbRotatedDimension
1001
ACAD
1000
DSTYLE
1002
{
1070
    41
1040
50.0
1070
    42
1040
50.0
1070
    44
1040
3.0
1070
    48
1040
3.0
1070
    78
1070
     9
1070
   140
1040
50.0
1070
   141
1040
7.0
1070
   147
1040
5.0
1070
   172
1070
     1
1070
   178
1070
   256
1070
   271
1070
     1
1070
   272
1070
     0
1070
   288
1070
     1
1002
}
  0
LINE
  5
194
330
2
100
AcDbEntity
  8
0
 48
10.0
100
AcDbLine
 10
5355.167483349855
 20
-180.3145691749605
 30
0.0
 11
4485.167483349855
 21
-180.3145691749605
 31
0.0
  0
LINE
  5
195
330
2
100
AcDbEntity
  8
0
 48
10.0
100
AcDbLine
 10
4485.167483349855
 20
279.6854308250395
 30
0.0
 11
5355.167483349855
 21
279.6854308250395
 31
0.0
  0
LINE
  5
196
330
2
100
AcDbEntity
  8
0
 48
10.0
100
AcDbLine
 10
4390.167483349855
 20
-85.31456917496052
 30
0.0
 11
4390.167483349855
 21
184.6854308250394
 31
0.0
  0
DIMENSION
  5
197
330
2
100
AcDbEntity
  8
DIM
 48
10.0
100
AcDbDimension
  2
*D0
 10
4485.167483349855
 20
-85.31456917495711
 30
0.0
 11
4253.396084570407
 21
-294.1034394493229
 31
0.0
 70
   132
 71
     5
 42
95.0000000000009
  3
STANDARD
100
AcDbRadialDimension
 15
4435.473036932075
 25
-166.2803767435262
 35
0.0
 40
0.0
1001
ACAD
1000
DSTYLE
1002
{
1070
    78
1070
     9
1070
   288
1070
     1
1070
   140
1040
50.0
1070
   172
1070
     1
1070
    48
1040
3.0
1070
   272
1070
     0
1070
   147
1040
5.0
1070
    42
1040
50.0
1070
    44
1040
3.0
1070
   271
1070
     1
1070
   178
1070
   256
1070
   141
1040
7.0
1070
    41
1040
50.0
1002
}
  0
ARC
  5
1A2
330
2
100
AcDbEntity
  8
0
 48
10.0
100
AcDbCircle
 10
4485.167483349855
 20
-85.31456917496052
 30
0.0
 40
95.0
100
AcDbArc
 50
180.0
 51
270.0
  0
ARC
  5
1A3
330
2
100
AcDbEntity
  8
0
 48
10.0
100
AcDbCircle
 10
4485.167483349855
 20
184.6854308250394
 30
0.0
 40
95.0
100
AcDbArc
 50
90.0
 51
180.0
  0
LINE
  5
1A4
330
2
100
AcDbEntity
  8
0
 48
10.0
100
AcDbLine
 10
5450.167483349855
 20
184.6854308250394
 30
0.0
 11
5450.167483349855
 21
-85.31456917496052
 31
0.0
  0
DIMENSION
  5
1A5
330
2
100
AcDbEntity
  8
DIM
 48
10.0
100
AcDbDimension
  2
*D1
 10
5685.792156267832
 20
-180.3145691749606
 30
0.0
 11
5685.792156267832
 21
65.52850380970903
 31
0.0
 70
   160
 71
     5
 42
460.0
  3
STANDARD
100
AcDbAlignedDimension
 13
5355.167483349855
 23
279.6854308250395
 33
0.0
 14
5355.167483349855
 24
-180.3145691749605
 34
0.0
 50
90.0
100
AcDbRotatedDimension
1001
ACAD
1000
DSTYLE
1002
{
1070
    78
1070
     9
1070
   288
1070
     1
1070
   140
1040
50.0
1070
   172
1070
     1
1070
    48
1040
3.0
1070
   272
1070
     0
1070
   147
1040
5.0
1070
    42
1040
50.0
1070
    44
1040
3.0
1070
   271
1070
     1
1070
   178
1070
   256
1070
   141
1040
7.0
1070
    41
1040
50.0
1002
}
  0
ARC
  5
1B3
330
2
100
AcDbEntity
  8
0
 48
10.0
100
AcDbCircle
 10
5355.167483349855
 20
-85.31456917496052
 30
0.0
 40
95.0
100
AcDbArc
 50
270.0
 51
0.0
  0
ARC
  5
1B4
330
2
100
AcDbEntity
  8
0
 48
10.0
100
AcDbCircle
 10
5355.167483349855
 20
184.6854308250394
 30
0.0
 40
95.0
100
AcDbArc
 50
0.0
 51
90.0
  0
ENDSEC
  0
SECTION
  2
OBJECTS
  0
DICTIONARY
  5
7
330
0
100
AcDbDictionary
281
     1
  3
ACAD_COLOR
350
24
  3
ACAD_GROUP
350
20
  3
ACAD_LAYOUT
350
B
  3
ACAD_MATERIAL
350
23
  3
ACAD_MLINESTYLE
350
21
  3
ACAD_PLOTSETTINGS
350
22
  3
ACAD_PLOTSTYLENAME
350
6
  3
ACDBHEADERROUNDTRIPXREC
350
221
  3
AcDbVariableDictionary
350
1D2
  0
DICTIONARY
  5
24
102
{ACAD_REACTORS
330
7
102
}
330
7
100
AcDbDictionary
281
     1
  0
DICTIONARY
  5
20
102
{ACAD_REACTORS
330
7
102
}
330
7
100
AcDbDictionary
281
     1
  0
DICTIONARY
  5
B
102
{ACAD_REACTORS
330
7
102
}
330
7
100
AcDbDictionary
281
     1
  3
Layout1
350
F
  3
Model
350
A
  0
DICTIONARY
  5
23
102
{ACAD_REACTORS
330
7
102
}
330
7
100
AcDbDictionary
281
     1
  0
DICTIONARY
  5
21
102
{ACAD_REACTORS
330
7
102
}
330
7
100
AcDbDictionary
281
     1
  3
STANDARD
350
25
  0
DICTIONARY
  5
22
102
{ACAD_REACTORS
330
7
102
}
330
7
100
AcDbDictionary
281
     1
  0
ACDBDICTIONARYWDFLT
  5
6
102
{ACAD_REACTORS
330
7
102
}
330
7
100
AcDbDictionary
281
     1
  3
Normal
350
5
100
AcDbDictionaryWithDefault
340
5
  0
DICTIONARY
  5
221
102
{ACAD_REACTORS
330
7
102
}
330
7
100
AcDbDictionary
281
     1
  3
COLORDICT
350
223
  3
MATERIALDICT
350
222
  0
DICTIONARY
  5
1D2
102
{ACAD_REACTORS
330
7
102
}
330
7
100
AcDbDictionary
281
     1
  3
DIMASSOC
350
1D4
  3
HIDETEXT
350
1D3
  3
PROJECTNAME
350
1D5
  0
LAYOUT
  5
F
102
{ACAD_XDICTIONARY
360
226
102
}
102
{ACAD_REACTORS
330
B
102
}
330
B
100
AcDbPlotSettings
  1

  2
HP LaserJet 6P
  4

  6

 40
0.0
 41
0.0
 42
0.0
 43
0.0
 44
0.0
 45
0.0
 46
0.0
 47
0.0
 48
0.0
 49
0.0
140
0.0
141
0.0
142
1.0
143
1.0
 70
   688
 72
     0
 73
     0
 74
     5
  7

 75
    16
147
1.0
148
0.0
149
0.0
100
AcDbLayout
  1
Layout1
 70
     1
 71
     1
 10
0.0
 20
0.0
 11
420.0
 21
297.0
 12
0.0
 22
0.0
 32
0.0
 14
1.000000000000000E+20
 24
1.000000000000000E+20
 34
1.000000000000000E+20
 15
-1.000000000000000E+20
 25
-1.000000000000000E+20
 35
-1.000000000000000E+20
146
0.0
 13
0.0
 23
0.0
 33
0.0
 16
1.0
 26
0.0
 36
0.0
 17
0.0
 27
1.0
 37
0.0
 76
     0
330
C
  0
LAYOUT
  5
A
102
{ACAD_XDICTIONARY
360
224
102
}
102
{ACAD_REACTORS
330
B
102
}
330
B
100
AcDbPlotSettings
  1

  2
HP LaserJet 6P
  4
A4
  6

 40
6.805083274841308
 41
5.069413185119628
 42
6.805084228515625
 43
5.027069091796875
 44
209.9733276367187
 45
296.9683227539062
 46
0.0
 47
0.0
 48
1325.980877315367
 49
-687.4904160295673
140
3360.831312687678
141
751.6372088307625
142
1.0
143
186.1542747968942
 70
 11952
 72
     0
 73
     1
 74
     4
  7

 75
     0
147
0.0053718884569858
148
-33679.91428381033
149
17462.25656715101
100
AcDbLayout
  1
Model
 70
     1
 71
     0
 10
0.0
 20
0.0
 11
12.0
 21
9.0
 12
0.0
 22
0.0
 32
0.0
 14
0.0
 24
0.0
 34
0.0
 15
0.0
 25
0.0
 35
0.0
146
0.0
 13
0.0
 23
0.0
 33
0.0
 16
1.0
 26
0.0
 36
0.0
 17
0.0
 27
1.0
 37
0.0
 76
     0
330
2
  0
MLINESTYLE
  5
25
102
{ACAD_REACTORS
330
21
102
}
330
21
100
AcDbMlineStyle
  2
STANDARD
 70
     0
  3

 62
     0
 51
90.0
 52
90.0
 71
     2
 49
0.5
 62
   256
  6
BYLAYER
 49
-0.5
 62
   256
  6
BYLAYER
  0
ACDBPLACEHOLDER
  5
5
102
{ACAD_REACTORS
330
6
102
}
330
6
  0
XRECORD
  5
223
102
{ACAD_REACTORS
330
221
102
}
330
221
100
AcDbXrecord
280
     1
340
24
  0
XRECORD
  5
222
102
{ACAD_REACTORS
330
221
102
}
330
221
100
AcDbXrecord
280
     1
340
23
  0
DICTIONARYVAR
  5
1D4
102
{ACAD_REACTORS
330
1D2
102
}
330
1D2
100
DictionaryVariables
280
     0
  1
1
  0
DICTIONARYVAR
  5
1D3
102
{ACAD_REACTORS
330
1D2
102
}
330
1D2
100
DictionaryVariables
280
     0
  1
1
  0
DICTIONARYVAR
  5
1D5
102
{ACAD_REACTORS
330
1D2
102
}
330
1D2
100
DictionaryVariables
280
     0
  1

  0
DICTIONARY
  5
226
330
F
100
AcDbDictionary
280
     1
281
     1
  3
ACAD_XREC_ROUNDTRIP
360
227
  0
DICTIONARY
  5
224
330
A
100
AcDbDictionary
280
     1
281
     1
  3
ACAD_XREC_ROUNDTRIP
360
225
  0
XRECORD
  5
227
102
{ACAD_REACTORS
330
226
102
}
330
226
100
AcDbXrecord
280
     1
102
SHADEPLOT
 70
     0
102
SHADEPLOTRESLEVEL
 70
     2
102
SHADEPLOTCUSTOMDPI
 70
   300
  0
XRECORD
  5
225
102
{ACAD_REACTORS
330
224
102
}
330
224
100
AcDbXrecord
280
     1
102
SHADEPLOT
 70
     0
102
SHADEPLOTRESLEVEL
 70
     2
102
SHADEPLOTCUSTOMDPI
 70
   300
  0
ENDSEC
  0
EOF
