  0
SECTION
  2
HEADER
  9
$ACADVER
  1
AC1015
  9
$ACADMAINTVER
 70
    20
  9
$DWGCODEPAGE
  3
ANSI_1252
  9
$INSBASE
 10
2477.385288607926
 20
176.2271198694252
 30
0.0
  9
$EXTMIN
 10
-172.9550706824175
 20
-5.736622855083313
 30
0.0
  9
$EXTMAX
 10
1122.690413698927
 20
668.3094195586172
 30
0.0
  9
$LIMMIN
 10
0.0
 20
0.0
  9
$LIMMAX
 10
1200.0
 20
700.0
  9
$ORTHOMODE
 70
     0
  9
$REGENMODE
 70
     1
  9
$FILLMODE
 70
     1
  9
$QTEXTMODE
 70
     0
  9
$MIRRTEXT
 70
     1
  9
$LTSCALE
 40
3.333333333333333
  9
$ATTMODE
 70
     1
  9
$TEXTSIZE
 40
500.0
  9
$TRACEWID
 40
0.05
  9
$TEXTSTYLE
  7
STANDARD
  9
$CLAYER
  8
0
  9
$CELTYPE
  6
CONTINUOUS
  9
$CECOLOR
 62
   256
  9
$CELTSCALE
 40
15.0
  9
$DISPSILH
 70
     0
  9
$DIMSCALE
 40
1.0
  9
$DIMASZ
 40
40.0
  9
$DIMEXO
 40
20.0
  9
$DIMDLI
 40
12.5
  9
$DIMRND
 40
0.0
  9
$DIMDLE
 40
0.0
  9
$DIMEXE
 40
15.0
  9
$DIMTP
 40
1.0
  9
$DIMTM
 40
0.0
  9
$DIMTXT
 40
30.0
  9
$DIMCEN
 40
0.0
  9
$DIMTSZ
 40
0.0
  9
$DIMTOL
 70
     0
  9
$DIMLIM
 70
     0
  9
$DIMTIH
 70
     1
  9
$DIMTOH
 70
     1
  9
$DIMSE1
 70
     0
  9
$DIMSE2
 70
     0
  9
$DIMTAD
 70
     0
  9
$DIMZIN
 70
     8
  9
$DIMBLK
  1

  9
$DIMASO
 70
     1
  9
$DIMSHO
 70
     1
  9
$DIMPOST
  1

  9
$DIMAPOST
  1

  9
$DIMALT
 70
     0
  9
$DIMALTD
 70
     2
  9
$DIMALTF
 40
0.03937
  9
$DIMLFAC
 40
1.0
  9
$DIMTOFL
 70
     0
  9
$DIMTVP
 40
0.0
  9
$DIMTIX
 70
     0
  9
$DIMSOXD
 70
     0
  9
$DIMSAH
 70
     0
  9
$DIMBLK1
  1

  9
$DIMBLK2
  1

  9
$DIMSTYLE
  2
STANDARD
  9
$DIMCLRD
 70
     0
  9
$DIMCLRE
 70
     0
  9
$DIMCLRT
 70
     0
  9
$DIMTFAC
 40
1.0
  9
$DIMGAP
 40
2.083299999999999
  9
$DIMJUST
 70
     0
  9
$DIMSD1
 70
     0
  9
$DIMSD2
 70
     0
  9
$DIMTOLJ
 70
     1
  9
$DIMTZIN
 70
     8
  9
$DIMALTZ
 70
     0
  9
$DIMALTTZ
 70
     0
  9
$DIMUPT
 70
     0
  9
$DIMDEC
 70
     0
  9
$DIMTDEC
 70
     0
  9
$DIMALTU
 70
     2
  9
$DIMALTTD
 70
     2
  9
$DIMTXSTY
  7
STANDARD
  9
$DIMAUNIT
 70
     0
  9
$DIMADEC
 70
     0
  9
$DIMALTRND
 40
0.0
  9
$DIMAZIN
 70
     0
  9
$DIMDSEP
 70
    46
  9
$DIMATFIT
 70
     3
  9
$DIMFRAC
 70
     0
  9
$DIMLDRBLK
  1

  9
$DIMLUNIT
 70
     2
  9
$DIMLWD
 70
    -2
  9
$DIMLWE
 70
    -2
  9
$DIMTMOVE
 70
     0
  9
$LUNITS
 70
     2
  9
$LUPREC
 70
     8
  9
$SKETCHINC
 40
0.1
  9
$FILLETRAD
 40
5.0
  9
$AUNITS
 70
     0
  9
$AUPREC
 70
     8
  9
$MENU
  1
acad
  9
$ELEVATION
 40
0.0
  9
$PELEVATION
 40
0.0
  9
$THICKNESS
 40
0.0
  9
$LIMCHECK
 70
     0
  9
$CHAMFERA
 40
33.33333333333334
  9
$CHAMFERB
 40
33.33333333333334
  9
$CHAMFERC
 40
66.66666666666667
  9
$CHAMFERD
 40
0.0
  9
$SKPOLY
 70
     0
  9
$TDCREATE
 40
2449772.633869560
  9
$TDUCREATE
 40
2449772.196369560
  9
$TDUPDATE
 40
2455531.507447546
  9
$TDUUPDATE
 40
2455531.069947546
  9
$TDINDWG
 40
1.3585283102
  9
$TDUSRTIMER
 40
1.3585281366
  9
$USRTIMER
 70
     1
  9
$ANGBASE
 50
0.0
  9
$ANGDIR
 70
     0
  9
$PDMODE
 70
     0
  9
$PDSIZE
 40
0.0
  9
$PLINEWID
 40
0.0
  9
$SPLFRAME
 70
     0
  9
$SPLINETYPE
 70
     6
  9
$SPLINESEGS
 70
     8
  9
$HANDSEED
  5
37B
  9
$SURFTAB1
 70
     6
  9
$SURFTAB2
 70
     6
  9
$SURFTYPE
 70
     6
  9
$SURFU
 70
     6
  9
$SURFV
 70
     6
  9
$UCSBASE
  2

  9
$UCSNAME
  2

  9
$UCSORG
 10
0.0
 20
0.0
 30
0.0
  9
$UCSXDIR
 10
1.0
 20
0.0
 30
0.0
  9
$UCSYDIR
 10
0.0
 20
1.0
 30
0.0
  9
$UCSORTHOREF
  2

  9
$UCSORTHOVIEW
 70
     0
  9
$UCSORGTOP
 10
0.0
 20
0.0
 30
0.0
  9
$UCSORGBOTTOM
 10
0.0
 20
0.0
 30
0.0
  9
$UCSORGLEFT
 10
0.0
 20
0.0
 30
0.0
  9
$UCSORGRIGHT
 10
0.0
 20
0.0
 30
0.0
  9
$UCSORGFRONT
 10
0.0
 20
0.0
 30
0.0
  9
$UCSORGBACK
 10
0.0
 20
0.0
 30
0.0
  9
$PUCSBASE
  2

  9
$PUCSNAME
  2

  9
$PUCSORG
 10
0.0
 20
0.0
 30
0.0
  9
$PUCSXDIR
 10
1.0
 20
0.0
 30
0.0
  9
$PUCSYDIR
 10
0.0
 20
1.0
 30
0.0
  9
$PUCSORTHOREF
  2

  9
$PUCSORTHOVIEW
 70
     0
  9
$PUCSORGTOP
 10
0.0
 20
0.0
 30
0.0
  9
$PUCSORGBOTTOM
 10
0.0
 20
0.0
 30
0.0
  9
$PUCSORGLEFT
 10
0.0
 20
0.0
 30
0.0
  9
$PUCSORGRIGHT
 10
0.0
 20
0.0
 30
0.0
  9
$PUCSORGFRONT
 10
0.0
 20
0.0
 30
0.0
  9
$PUCSORGBACK
 10
0.0
 20
0.0
 30
0.0
  9
$USERI1
 70
     0
  9
$USERI2
 70
     0
  9
$USERI3
 70
     0
  9
$USERI4
 70
     0
  9
$USERI5
 70
     0
  9
$USERR1
 40
0.0
  9
$USERR2
 40
0.0
  9
$USERR3
 40
0.0
  9
$USERR4
 40
0.0
  9
$USERR5
 40
0.0
  9
$WORLDVIEW
 70
     1
  9
$SHADEDGE
 70
     3
  9
$SHADEDIF
 70
    70
  9
$TILEMODE
 70
     1
  9
$MAXACTVP
 70
    16
  9
$PINSBASE
 10
0.0
 20
0.0
 30
0.0
  9
$PLIMCHECK
 70
     0
  9
$PEXTMIN
 10
1.000000000000000E+20
 20
1.000000000000000E+20
 30
1.000000000000000E+20
  9
$PEXTMAX
 10
-1.000000000000000E+20
 20
-1.000000000000000E+20
 30
-1.000000000000000E+20
  9
$PLIMMIN
 10
0.0
 20
0.0
  9
$PLIMMAX
 10
12.0
 20
9.0
  9
$UNITMODE
 70
     0
  9
$VISRETAIN
 70
     0
  9
$PLINEGEN
 70
     0
  9
$PSLTSCALE
 70
     1
  9
$TREEDEPTH
 70
  3020
  9
$CMLSTYLE
  2
STANDARD
  9
$CMLJUST
 70
     0
  9
$CMLSCALE
 40
20.0
  9
$PROXYGRAPHICS
 70
     1
  9
$MEASUREMENT
 70
     0
  9
$CELWEIGHT
370
    -1
  9
$ENDCAPS
280
     0
  9
$JOINSTYLE
280
     0
  9
$LWDISPLAY
290
     0
  9
$INSUNITS
 70
     0
  9
$HYPERLINKBASE
  1

  9
$STYLESHEET
  1

  9
$XEDIT
290
     1
  9
$CEPSNTYPE
380
     0
  9
$PSTYLEMODE
290
     1
  9
$FINGERPRINTGUID
  2
{19706013-E2D4-4063-BA2A-7E3D468A7605}
  9
$VERSIONGUID
  2
{01C77B4A-4AE3-4B12-BB50-8A2D3B980C6D}
  9
$EXTNAMES
290
     1
  9
$PSVPSCALE
 40
0.0
  9
$OLESTARTUP
290
     0
  0
ENDSEC
  0
SECTION
  2
CLASSES
  0
CLASS
  1
ACDBDICTIONARYWDFLT
  2
AcDbDictionaryWithDefault
  3
ObjectDBX Classes
 90
        0
280
     0
281
     0
  0
CLASS
  1
DICTIONARYVAR
  2
AcDbDictionaryVar
  3
ObjectDBX Classes
 90
        0
280
     0
281
     0
  0
CLASS
  1
ACDBPLACEHOLDER
  2
AcDbPlaceHolder
  3
ObjectDBX Classes
 90
        0
280
     0
281
     0
  0
CLASS
  1
LAYOUT
  2
AcDbLayout
  3
ObjectDBX Classes
 90
        0
280
     0
281
     0
  0
CLASS
  1
DIMASSOC
  2
AcDbDimAssoc
  3
"AcDbDimAssoc|Product Desc:     AcDim ARX App For Dimension|Company:          Autodesk, Inc.|WEB Address:      www.autodesk.com"
 90
        0
280
     0
281
     0
  0
ENDSEC
  0
SECTION
  2
TABLES
  0
TABLE
  2
VPORT
  5
19
330
0
100
AcDbSymbolTable
 70
     4
  0
VPORT
  5
373
330
19
100
AcDbSymbolTableRecord
100
AcDbViewportTableRecord
  2
*Active
 70
     0
 10
0.0
 20
0.0
 11
1.0
 21
1.0
 12
631.7270968186903
 22
307.2110130821692
 13
0.0
 23
0.0
 14
33.0
 24
33.0
 15
33.0
 25
33.0
 16
0.0
 26
0.0
 36
1.0
 17
0.0
 27
0.0
 37
0.0
 40
917.3135966595944
 41
1.985166872682323
 42
50.0
 43
0.0
 44
0.0
 50
0.0
 51
0.0
 71
     0
 72
   100
 73
     1
 74
     3
 75
     0
 76
     0
 77
     0
 78
     0
281
     0
 65
     1
110
0.0
120
0.0
130
0.0
111
1.0
121
0.0
131
0.0
112
0.0
122
1.0
132
0.0
 79
     0
146
0.0
  0
ENDTAB
  0
TABLE
  2
LTYPE
  5
14
330
0
100
AcDbSymbolTable
 70
     1
  0
LTYPE
  5
15
330
14
100
AcDbSymbolTableRecord
100
AcDbLinetypeTableRecord
  2
BYBLOCK
 70
     0
  3

 72
    65
 73
     0
 40
0.0
  0
LTYPE
  5
16
330
14
100
AcDbSymbolTableRecord
100
AcDbLinetypeTableRecord
  2
BYLAYER
 70
     0
  3

 72
    65
 73
     0
 40
0.0
  0
LTYPE
  5
8
330
14
100
AcDbSymbolTableRecord
100
AcDbLinetypeTableRecord
  2
CONTINUOUS
 70
     0
  3
Solid line
 72
    65
 73
     0
 40
0.0
  0
ENDTAB
  0
TABLE
  2
LAYER
  5
10
330
0
100
AcDbSymbolTable
 70
     4
  0
LAYER
  5
4
330
10
100
AcDbSymbolTableRecord
100
AcDbLayerTableRecord
  2
0
 70
     0
 62
     7
  6
CONTINUOUS
370
    -3
390
5
  0
LAYER
  5
2E
330
10
100
AcDbSymbolTableRecord
100
AcDbLayerTableRecord
  2
DEFPOINTS
 70
     0
 62
     7
  6
CONTINUOUS
290
     0
370
    -3
390
5
  0
LAYER
  5
27
330
10
100
AcDbSymbolTableRecord
100
AcDbLayerTableRecord
  2
DIM
 70
     0
 62
     3
  6
CONTINUOUS
370
    -3
390
5
  0
LAYER
  5
2F7
330
10
100
AcDbSymbolTableRecord
100
AcDbLayerTableRecord
  2
2NDRESTRIKEMATERIAL
 70
     0
 62
     3
  6
CONTINUOUS
370
    -3
390
5
  0
ENDTAB
  0
TABLE
  2
STYLE
  5
11
330
0
100
AcDbSymbolTable
 70
     1
  0
STYLE
  5
12
330
11
100
AcDbSymbolTableRecord
100
AcDbTextStyleTableRecord
  2
STANDARD
 70
     0
 40
0.0
 41
1.0
 50
0.0
 71
     0
 42
500.0
  3
txt
  4

  0
ENDTAB
  0
TABLE
  2
VIEW
  5
17
330
0
100
AcDbSymbolTable
 70
     0
  0
ENDTAB
  0
TABLE
  2
UCS
  5
18
330
0
100
AcDbSymbolTable
 70
     0
  0
ENDTAB
  0
TABLE
  2
APPID
  5
1B
330
0
100
AcDbSymbolTable
 70
     1
  0
APPID
  5
1C
330
1B
100
AcDbSymbolTableRecord
100
AcDbRegAppTableRecord
  2
ACAD
 70
     0
  0
ENDTAB
  0
TABLE
  2
DIMSTYLE
  5
1D
330
0
100
AcDbSymbolTable
 70
     1
100
AcDbDimStyleTable
 71
     1
340
25
  0
DIMSTYLE
105
25
102
{ACAD_REACTORS
330
341
330
351
330
35F
330
369
102
}
330
1D
100
AcDbSymbolTableRecord
100
AcDbDimStyleTableRecord
  2
STANDARD
 70
     0
340
12
  0
ENDTAB
  0
TABLE
  2
BLOCK_RECORD
  5
1
330
0
100
AcDbSymbolTable
 70
    15
  0
BLOCK_RECORD
  5
2
330
1
100
AcDbSymbolTableRecord
100
AcDbBlockTableRecord
  2
*MODEL_SPACE
340
A
  0
BLOCK_RECORD
  5
C
330
1
100
AcDbSymbolTableRecord
100
AcDbBlockTableRecord
  2
*PAPER_SPACE
340
F
  0
BLOCK_RECORD
  5
218
330
1
100
AcDbSymbolTableRecord
100
AcDbBlockTableRecord
  2
*D0
340
0
  0
BLOCK_RECORD
  5
239
330
1
100
AcDbSymbolTableRecord
100
AcDbBlockTableRecord
  2
*D1
340
0
  0
BLOCK_RECORD
  5
279
330
1
100
AcDbSymbolTableRecord
100
AcDbBlockTableRecord
  2
*D2
340
0
  0
BLOCK_RECORD
  5
288
330
1
100
AcDbSymbolTableRecord
100
AcDbBlockTableRecord
  2
*D3
340
0
  0
BLOCK_RECORD
  5
2D1
330
1
100
AcDbSymbolTableRecord
100
AcDbBlockTableRecord
  2
*D4
340
0
  0
BLOCK_RECORD
  5
2DC
330
1
100
AcDbSymbolTableRecord
100
AcDbBlockTableRecord
  2
*D5
340
0
  0
BLOCK_RECORD
  5
2E9
330
1
100
AcDbSymbolTableRecord
100
AcDbBlockTableRecord
  2
*D6
340
0
  0
BLOCK_RECORD
  5
312
330
1
100
AcDbSymbolTableRecord
100
AcDbBlockTableRecord
  2
*D8
340
0
  0
BLOCK_RECORD
  5
31F
330
1
100
AcDbSymbolTableRecord
100
AcDbBlockTableRecord
  2
*D9
340
0
  0
BLOCK_RECORD
  5
32D
330
1
100
AcDbSymbolTableRecord
100
AcDbBlockTableRecord
  2
*D10
340
0
  0
BLOCK_RECORD
  5
342
330
1
100
AcDbSymbolTableRecord
100
AcDbBlockTableRecord
  2
*D11
340
0
  0
BLOCK_RECORD
  5
352
330
1
100
AcDbSymbolTableRecord
100
AcDbBlockTableRecord
  2
*D12
340
0
  0
BLOCK_RECORD
  5
360
330
1
100
AcDbSymbolTableRecord
100
AcDbBlockTableRecord
  2
*D13
340
0
  0
BLOCK_RECORD
  5
36A
330
1
100
AcDbSymbolTableRecord
100
AcDbBlockTableRecord
  2
*D14
340
0
  0
ENDTAB
  0
ENDSEC
  0
SECTION
  2
BLOCKS
  0
BLOCK
  5
3
330
2
100
AcDbEntity
  8
0
100
AcDbBlockBegin
  2
*MODEL_SPACE
 70
     0
 10
0.0
 20
0.0
 30
0.0
  3
*MODEL_SPACE
  1

  0
ENDBLK
  5
9
330
2
100
AcDbEntity
  8
0
100
AcDbBlockEnd
  0
BLOCK
  5
D
330
C
100
AcDbEntity
 67
     1
  8
0
100
AcDbBlockBegin
  2
*PAPER_SPACE
 70
     0
 10
0.0
 20
0.0
 30
0.0
  3
*PAPER_SPACE
  1

  0
ENDBLK
  5
E
330
C
100
AcDbEntity
 67
     1
  8
0
100
AcDbBlockEnd
  0
BLOCK
  5
223
330
218
100
AcDbEntity
  8
0
 48
15.0
100
AcDbBlockBegin
  2
*D0
 70
     1
 10
0.0
 20
0.0
 30
0.0
  3
*D0
  1

  0
LINE
  5
250
330
218
100
AcDbEntity
  8
DIM
 62
     0
 48
15.0
370
    -2
100
AcDbLine
 10
932.7588843480722
 20
471.0000000000017
 30
0.0
 11
1097.690413698927
 21
471.0000000000017
 31
0.0
  0
LINE
  5
251
330
218
100
AcDbEntity
  8
DIM
 62
     0
 48
15.0
370
    -2
100
AcDbLine
 10
932.7588843480731
 20
-4.99999999999821
 30
0.0
 11
1097.690413698927
 21
-4.999999999998256
 31
0.0
  0
LINE
  5
252
330
218
100
AcDbEntity
  8
DIM
 62
     0
 48
15.0
370
    -2
100
AcDbLine
 10
1082.690413698927
 20
431.0000000000017
 30
0.0
 11
1082.690413698927
 21
270.0833000000018
 31
0.0
  0
LINE
  5
253
330
218
100
AcDbEntity
  8
DIM
 62
     0
 48
15.0
370
    -2
100
AcDbLine
 10
1082.690413698927
 20
35.00000000000175
 30
0.0
 11
1082.690413698927
 21
195.9167000000017
 31
0.0
  0
SOLID
  5
254
330
218
100
AcDbEntity
  8
DIM
 62
     0
 48
15.0
100
AcDbTrace
 10
1076.023747032261
 20
431.0000000000017
 30
0.0
 11
1089.357080365594
 21
431.0000000000017
 31
0.0
 12
1082.690413698927
 22
471.0000000000017
 32
0.0
 13
1082.690413698927
 23
471.0000000000017
 33
0.0
  0
SOLID
  5
255
330
218
100
AcDbEntity
  8
DIM
 62
     0
 48
15.0
100
AcDbTrace
 10
1076.023747032261
 20
35.00000000000175
 30
0.0
 11
1089.357080365594
 21
35.00000000000175
 31
0.0
 12
1082.690413698927
 22
-4.999999999998252
 32
0.0
 13
1082.690413698927
 23
-4.999999999998252
 33
0.0
  0
MTEXT
  5
256
330
218
100
AcDbEntity
  8
DIM
 62
     0
 48
15.0
100
AcDbMText
 10
1082.690413698927
 20
233.0000000000019
 30
0.0
 40
30.0
 41
0.0
 71
     5
 72
     1
  1
\A1;\S477^ 476;
 73
     1
 44
1.0
1001
ACAD
1000
MTEXTBEGIN
1070
    73
1070
     1
1070
    44
1040
1.0
1070
    74
1070
     0
1000
MTEXTEND
  0
POINT
  5
257
330
218
100
AcDbEntity
  8
DEFPOINTS
 62
     0
 48
15.0
100
AcDbPoint
 10
832.7588843480722
 20
471.0000000000018
 30
0.0
  0
POINT
  5
258
330
218
100
AcDbEntity
  8
DEFPOINTS
 62
     0
 48
15.0
100
AcDbPoint
 10
832.7588843480731
 20
-4.999999999998181
 30
0.0
  0
POINT
  5
259
330
218
100
AcDbEntity
  8
DEFPOINTS
 62
     0
 48
15.0
100
AcDbPoint
 10
1082.690413698927
 20
-4.999999999998252
 30
0.0
  0
ENDBLK
  5
224
330
218
100
AcDbEntity
  8
0
 48
15.0
100
AcDbBlockEnd
  0
BLOCK
  5
244
330
239
100
AcDbEntity
  8
0
 48
15.0
100
AcDbBlockBegin
  2
*D1
 70
     1
 10
0.0
 20
0.0
 30
0.0
  3
*D1
  1

  0
LINE
  5
26E
330
239
100
AcDbEntity
  8
DIM
 62
     0
 48
15.0
370
    -2
100
AcDbLine
 10
-46.62055782596348
 20
333.000000000001
 30
0.0
 11
-46.62055782596346
 21
641.9027700086994
 31
0.0
  0
LINE
  5
26F
330
239
100
AcDbEntity
  8
DIM
 62
     0
 48
15.0
370
    -2
100
AcDbLine
 10
879.3794421740354
 20
333.0000000000004
 30
0.0
 11
879.3794421740354
 21
641.9027700086994
 31
0.0
  0
LINE
  5
270
330
239
100
AcDbEntity
  8
DIM
 62
     0
 48
15.0
370
    -2
100
AcDbLine
 10
-6.620557825963466
 20
626.9027700086994
 30
0.0
 11
357.4068775048804
 21
626.9027700086994
 31
0.0
  0
LINE
  5
271
330
239
100
AcDbEntity
  8
DIM
 62
     0
 48
15.0
370
    -2
100
AcDbLine
 10
839.3794421740354
 20
626.9027700086994
 30
0.0
 11
441.5734775048804
 21
626.9027700086994
 31
0.0
  0
SOLID
  5
272
330
239
100
AcDbEntity
  8
DIM
 62
     0
 48
15.0
100
AcDbTrace
 10
-6.620557825963466
 20
633.5694366753661
 30
0.0
 11
-6.620557825963466
 21
620.2361033420328
 31
0.0
 12
-46.62055782596346
 22
626.9027700086994
 32
0.0
 13
-46.62055782596346
 23
626.9027700086994
 33
0.0
  0
SOLID
  5
273
330
239
100
AcDbEntity
  8
DIM
 62
     0
 48
15.0
100
AcDbTrace
 10
839.3794421740354
 20
633.5694366753661
 30
0.0
 11
839.3794421740354
 21
620.2361033420328
 31
0.0
 12
879.3794421740354
 22
626.9027700086994
 32
0.0
 13
879.3794421740354
 23
626.9027700086994
 33
0.0
  0
MTEXT
  5
274
330
239
100
AcDbEntity
  8
DIM
 62
     0
 48
15.0
100
AcDbMText
 10
399.4901775048804
 20
626.9027700086994
 30
0.0
 40
30.0
 41
0.0
 71
     5
 72
     1
  1
\A1;\S927^ 926;
 73
     1
 44
1.0
1001
ACAD
1000
MTEXTBEGIN
1070
    73
1070
     1
1070
    44
1040
1.0
1070
    74
1070
     0
1000
MTEXTEND
  0
POINT
  5
275
330
239
100
AcDbEntity
  8
DEFPOINTS
 62
     0
 48
15.0
100
AcDbPoint
 10
-46.62055782596349
 20
233.000000000001
 30
0.0
  0
POINT
  5
276
330
239
100
AcDbEntity
  8
DEFPOINTS
 62
     0
 48
15.0
100
AcDbPoint
 10
879.3794421740354
 20
233.0000000000004
 30
0.0
  0
POINT
  5
277
330
239
100
AcDbEntity
  8
DEFPOINTS
 62
     0
 48
15.0
100
AcDbPoint
 10
879.3794421740354
 20
626.9027700086994
 30
0.0
  0
ENDBLK
  5
245
330
239
100
AcDbEntity
  8
0
 48
15.0
100
AcDbBlockEnd
  0
BLOCK
  5
27F
330
279
100
AcDbEntity
  8
0
 48
15.0
100
AcDbBlockBegin
  2
*D2
 70
     1
 10
0.0
 20
0.0
 30
0.0
  3
*D2
  1

  0
LINE
  5
281
330
279
100
AcDbEntity
  8
DIM
 62
     0
 48
15.0
370
    -2
100
AcDbLine
 10
136.7208546661477
 20
191.7456349678369
 30
0.0
 11
-4.413259527924104
 21
179.9750958273222
 31
0.0
  0
MTEXT
  5
282
330
279
100
AcDbEntity
  8
DIM
 62
     0
 48
15.0
100
AcDbMText
 10
193.8041546661477
 20
191.7456349678369
 30
0.0
 40
30.0
 41
0.0
 71
     5
 72
     1
  1
\A1;R\S679^ 678;
 73
     1
 44
1.0
1001
ACAD
1000
MTEXTBEGIN
1070
    73
1070
     1
1070
    44
1040
1.0
1070
    74
1070
     0
1000
MTEXTEND
  0
SOLID
  5
283
330
279
100
AcDbEntity
  8
DIM
 62
     0
 48
15.0
100
AcDbTrace
 10
-4.967333761703397
 20
186.6186977259843
 30
0.0
 11
-3.859185294144811
 21
173.3314939286602
 31
0.0
 12
-44.27487091989656
 22
176.6506504246465
 32
0.0
 13
-44.27487091989656
 23
176.6506504246465
 33
0.0
  0
POINT
  5
284
330
279
100
AcDbEntity
  8
DEFPOINTS
 62
     0
 48
15.0
100
AcDbPoint
 10
-44.27487091989656
 20
176.6506504246465
 30
0.0
  0
POINT
  5
285
330
279
100
AcDbEntity
  8
DEFPOINTS
 62
     0
 48
15.0
100
AcDbPoint
 10
631.379442174038
 20
233.000000000001
 30
0.0
  0
ENDBLK
  5
280
330
279
100
AcDbEntity
  8
0
 48
15.0
100
AcDbBlockEnd
  0
BLOCK
  5
28F
330
288
100
AcDbEntity
  8
0
 48
15.0
100
AcDbBlockBegin
  2
*D3
 70
     1
 10
0.0
 20
0.0
 30
0.0
  3
*D3
  1

  0
LINE
  5
297
330
288
100
AcDbEntity
  8
DIM
  6
Continuous
 62
     0
 48
15.0
370
    -2
100
AcDbLine
 10
-120.8717706824175
 20
566.6602522440907
 30
0.0
 11
-80.87177068241757
 21
566.6602522440907
 31
0.0
  0
LINE
  5
298
330
288
100
AcDbEntity
  8
DIM
  6
Continuous
 62
     0
 48
15.0
370
    -2
100
AcDbLine
 10
-80.87177068241757
 20
566.6602522440907
 30
0.0
 11
-28.1842259229299
 21
501.0806130095429
 31
0.0
  0
MTEXT
  5
299
330
288
100
AcDbEntity
  8
DIM
  6
Continuous
 62
     0
 48
15.0
100
AcDbMText
 10
-147.9550706824175
 20
566.6602522440907
 30
0.0
 40
30.0
 41
0.0
 71
     5
 72
     1
  1
\A1;R5
 73
     1
 44
1.0
1001
ACAD
1000
MTEXTBEGIN
1070
    73
1070
     1
1070
    44
1040
1.0
1070
    74
1070
     0
1000
MTEXTEND
  0
SOLID
  5
29A
330
288
100
AcDbEntity
  8
DIM
  6
Continuous
 62
     0
 48
15.0
100
AcDbTrace
 10
-22.98709806966414
 20
505.2560538870137
 30
0.0
 11
-33.38135377619563
 21
496.905172132072
 31
0.0
 12
-3.13158065810515
 22
469.8978458899485
 32
0.0
 13
-3.13158065810515
 23
469.8978458899485
 33
0.0
  0
POINT
  5
29B
330
288
100
AcDbEntity
  8
DEFPOINTS
  6
Continuous
 62
     0
 48
15.0
100
AcDbPoint
 10
-3.13158065810515
 20
469.8978458899485
 30
0.0
  0
POINT
  5
29C
330
288
100
AcDbEntity
  8
DEFPOINTS
  6
Continuous
 62
     0
 48
15.0
100
AcDbPoint
 10
-0.0000000000020748
 20
465.9999999999993
 30
0.0
  0
ENDBLK
  5
290
330
288
100
AcDbEntity
  8
0
 48
15.0
100
AcDbBlockEnd
  0
BLOCK
  5
2D2
330
2D1
100
AcDbEntity
  8
0
100
AcDbBlockBegin
  2
*D4
 70
     1
 10
0.0
 20
0.0
 30
0.0
  3
*D4
  1

  0
LINE
  5
2D3
330
2D1
100
AcDbEntity
  8
0
 62
     0
370
    -2
100
AcDbLine
 10
377.0773047369963
 20
545.246510430854
 30
0.0
 11
386.0773047369971
 21
545.2465104308542
 31
0.0
  0
LINE
  5
2D4
330
2D1
100
AcDbEntity
  8
0
 62
     0
370
    -2
100
AcDbLine
 10
386.0773047369971
 20
545.2465104308542
 30
0.0
 11
458.5122510591438
 21
439.023366056334
 31
0.0
  0
MTEXT
  5
2D5
330
2D1
100
AcDbEntity
  8
0
 62
     0
100
AcDbMText
 10
360.5773047369964
 20
545.246510430854
 30
0.0
 40
9.0
 41
0.0
 71
     5
 72
     1
  1
\A1;\U+220535
 73
     1
 44
1.0
1001
ACAD
1000
MTEXTBEGIN
1070
    73
1070
     1
1070
    44
1040
1.0
1070
    74
1070
     0
1000
MTEXTEND
  0
SOLID
  5
2D6
330
2D1
100
AcDbEntity
  8
0
 62
     0
100
AcDbTrace
 10
459.7515373600849
 20
439.8684515338447
 30
0.0
 11
457.2729647582027
 21
438.1782805788231
 31
0.0
 12
463.5827639242087
 22
431.5876482506872
 32
0.0
 13
463.5827639242087
 23
431.5876482506872
 33
0.0
  0
LINE
  5
2D7
330
2D1
100
AcDbEntity
  8
0
 62
     0
370
    -2
100
AcDbLine
 10
468.9420944951682
 20
417.1293080730409
 30
0.0
 11
477.9420944951682
 21
417.1293080730409
 31
0.0
  0
LINE
  5
2D8
330
2D1
100
AcDbEntity
  8
0
 62
     0
370
    -2
100
AcDbLine
 10
473.4420944951682
 20
412.629308073041
 30
0.0
 11
473.4420944951682
 21
421.629308073041
 31
0.0
  0
POINT
  5
2D9
330
2D1
100
AcDbEntity
  8
DEFPOINTS
 62
     0
100
AcDbPoint
 10
463.5827639242087
 20
431.5876482506872
 30
0.0
  0
POINT
  5
2DA
330
2D1
100
AcDbEntity
  8
DEFPOINTS
 62
     0
100
AcDbPoint
 10
483.3014250661277
 20
402.6709678953946
 30
0.0
  0
ENDBLK
  5
2DB
330
2D1
100
AcDbEntity
  8
0
100
AcDbBlockEnd
  0
BLOCK
  5
2DD
330
2DC
100
AcDbEntity
  8
0
100
AcDbBlockBegin
  2
*D5
 70
     1
 10
0.0
 20
0.0
 30
0.0
  3
*D5
  1

  0
LINE
  5
2DE
330
2DC
100
AcDbEntity
  8
0
 62
     0
370
    -2
100
AcDbLine
 10
251.7048236292766
 20
246.1253656215696
 30
0.0
 11
314.5251538173146
 21
162.7599717530495
 31
0.0
  0
LINE
  5
2DF
330
2DC
100
AcDbEntity
  8
0
 62
     0
370
    -2
100
AcDbLine
 10
475.3227664425184
 20
414.6335721041431
 30
0.0
 11
538.1430966305564
 21
331.268178235623
 31
0.0
  0
LINE
  5
2E0
330
2DC
100
AcDbEntity
  8
0
 62
     0
370
    -2
100
AcDbLine
 10
316.2965381993718
 20
175.3640265518436
 30
0.0
 11
408.9743866209833
 21
245.201794584762
 31
0.0
  0
LINE
  5
2E1
330
2DC
100
AcDbEntity
  8
0
 62
     0
370
    -2
100
AcDbLine
 10
525.5390418317623
 20
333.0395626176803
 30
0.0
 11
432.8611934101507
 21
263.201794584762
 31
0.0
  0
SOLID
  5
2E2
330
2DC
100
AcDbEntity
  8
0
 62
     0
100
AcDbTrace
 10
315.3938156646437
 20
176.5619798169145
 30
0.0
 11
317.1992607340998
 21
174.1660732867727
 31
0.0
 12
309.1088186089461
 22
169.9476913434752
 32
0.0
 13
309.1088186089461
 23
169.9476913434752
 33
0.0
  0
SOLID
  5
2E3
330
2DC
100
AcDbEntity
  8
0
 62
     0
100
AcDbTrace
 10
524.6363192970342
 20
334.2375158827512
 30
0.0
 11
526.4417643664905
 21
331.8416093526094
 31
0.0
 12
532.726761422188
 22
338.4558978260487
 32
0.0
 13
532.726761422188
 23
338.4558978260487
 33
0.0
  0
MTEXT
  5
2E4
330
2DC
100
AcDbEntity
  8
0
 62
     0
100
AcDbMText
 10
420.917790015567
 20
254.201794584762
 30
0.0
 40
9.0
 41
0.0
 71
     5
 72
     1
  1
\A1;280
 73
     1
 44
1.0
1001
ACAD
1000
MTEXTBEGIN
1070
    73
1070
     1
1070
    44
1040
1.0
1070
    74
1070
     0
1000
MTEXTEND
  0
POINT
  5
2E5
330
2DC
100
AcDbEntity
  8
DEFPOINTS
 62
     0
100
AcDbPoint
 10
249.8241516819264
 20
248.6211015904674
 30
0.0
  0
POINT
  5
2E6
330
2DC
100
AcDbEntity
  8
DEFPOINTS
 62
     0
100
AcDbPoint
 10
473.4420944951683
 20
417.1293080730408
 30
0.0
  0
POINT
  5
2E7
330
2DC
100
AcDbEntity
  8
DEFPOINTS
 62
     0
100
AcDbPoint
 10
532.726761422188
 20
338.4558978260487
 30
0.0
  0
ENDBLK
  5
2E8
330
2DC
100
AcDbEntity
  8
0
100
AcDbBlockEnd
  0
BLOCK
  5
2EA
330
2E9
100
AcDbEntity
  8
0
100
AcDbBlockBegin
  2
*D6
 70
     1
 10
0.0
 20
0.0
 30
0.0
  3
*D6
  1

  0
LINE
  5
2EB
330
2E9
100
AcDbEntity
  8
0
 62
     0
370
    -2
100
AcDbLine
 10
262.9491516819265
 20
248.6211015904674
 30
0.0
 11
384.0217531809163
 21
248.6211015904673
 31
0.0
  0
ARC
  5
2EC
330
2E9
100
AcDbEntity
  8
0
 62
     0
370
    -2
100
AcDbCircle
 10
249.8241516819266
 20
248.6211015904674
 30
0.0
 40
125.1976014989897
100
AcDbArc
 50
4.119672467515342
 51
14.20655501576391
  0
ARC
  5
2ED
330
2E9
100
AcDbEntity
  8
0
 62
     0
370
    -2
100
AcDbCircle
 10
249.8241516819266
 20
248.6211015904674
 30
0.0
 40
125.1976014989897
100
AcDbArc
 50
22.90417151694183
 51
32.88032753248459
  0
SOLID
  5
2EE
330
2E9
100
AcDbEntity
  8
0
 62
     0
100
AcDbTrace
 10
376.1972953082945
 20
257.6692008774314
 30
0.0
 11
373.1992338029343
 21
257.5613713356641
 31
0.0
 12
375.0217531809163
 22
248.6211015904674
 32
0.0
 13
375.0217531809163
 23
248.6211015904674
 33
0.0
  0
SOLID
  5
2EF
330
2E9
100
AcDbEntity
  8
0
 62
     0
100
AcDbTrace
 10
353.7362619624555
 20
315.7300626055919
 30
0.0
 11
356.1955137801171
 21
317.448224558764
 31
0.0
 12
349.81140201177
 22
323.9668990351627
 32
0.0
 13
349.81140201177
 23
323.9668990351627
 33
0.0
  0
MTEXT
  5
2F0
330
2E9
100
AcDbEntity
  8
0
 62
     0
100
AcDbMText
 10
368.5519987584976
 20
288.346883516846
 30
0.0
 40
9.0
 41
0.0
 71
     5
 72
     1
  1
\A1;37°
 73
     1
 44
1.0
1001
ACAD
1000
MTEXTBEGIN
1070
    73
1070
     1
1070
    44
1040
1.0
1070
    74
1070
     0
1000
MTEXTEND
  0
POINT
  5
2F1
330
2E9
100
AcDbEntity
  8
DEFPOINTS
 62
     0
100
AcDbPoint
 10
372.1323769594034
 20
275.3631555612043
 30
0.0
  0
POINT
  5
2F2
330
2E9
100
AcDbEntity
  8
DEFPOINTS
 62
     0
100
AcDbPoint
 10
239.8241516819265
 20
248.6211015904674
 30
0.0
  0
POINT
  5
2F3
330
2E9
100
AcDbEntity
  8
DEFPOINTS
 62
     0
100
AcDbPoint
 10
473.4420944951682
 20
417.1293080730406
 30
0.0
  0
POINT
  5
2F4
330
2E9
100
AcDbEntity
  8
DEFPOINTS
 62
     0
100
AcDbPoint
 10
249.8241516819265
 20
248.6211015904674
 30
0.0
  0
POINT
  5
2F5
330
2E9
100
AcDbEntity
  8
DEFPOINTS
 62
     0
100
AcDbPoint
 10
259.8241516819265
 20
248.6211015904674
 30
0.0
  0
ENDBLK
  5
2F6
330
2E9
100
AcDbEntity
  8
0
100
AcDbBlockEnd
  0
BLOCK
  5
31D
330
312
100
AcDbEntity
  8
0
 48
15.0
100
AcDbBlockBegin
  2
*D8
 70
     1
 10
0.0
 20
0.0
 30
0.0
  3
*D8
  1

  0
LINE
  5
313
330
312
100
AcDbEntity
  8
0
 62
     0
 48
15.0
370
    -2
100
AcDbLine
 10
584.5264083659375
 20
362.5647645837105
 30
0.0
 11
643.8817885581777
 21
283.7975146642876
 31
0.0
  0
LINE
  5
314
330
312
100
AcDbEntity
  8
0
 62
     0
 48
15.0
370
    -2
100
AcDbLine
 10
808.1443511791793
 20
531.0729710662839
 30
0.0
 11
867.4997313714195
 21
452.3057211468611
 31
0.0
  0
LINE
  5
315
330
312
100
AcDbEntity
  8
0
 62
     0
 48
15.0
370
    -2
100
AcDbLine
 10
643.9172162458187
 20
284.0495957602635
 30
0.0
 11
755.3435651927395
 21
368.015372297383
 31
0.0
  0
LINE
  5
316
330
312
100
AcDbEntity
  8
0
 62
     0
 48
15.0
370
    -2
100
AcDbLine
 10
867.2476502754436
 20
452.3411488345023
 30
0.0
 11
755.821301328523
 21
368.375372297383
 31
0.0
  0
SOLID
  5
317
330
312
100
AcDbEntity
  8
0
 62
     0
 48
15.0
100
AcDbTrace
 10
643.8991617951241
 20
284.073554825565
 30
0.0
 11
643.9352706965133
 21
284.0256366949621
 31
0.0
 12
643.7734618540103
 22
283.9412690560962
 32
0.0
 13
643.7734618540103
 23
283.9412690560962
 33
0.0
  0
SOLID
  5
318
330
312
100
AcDbEntity
  8
0
 62
     0
 48
15.0
100
AcDbTrace
 10
867.229595824749
 20
452.3651078998037
 30
0.0
 11
867.2657047261381
 21
452.3171897692009
 31
0.0
 12
867.3914046672521
 22
452.4494755386696
 32
0.0
 13
867.3914046672521
 23
452.4494755386696
 33
0.0
  0
MTEXT
  5
319
330
312
100
AcDbEntity
  8
0
 62
     0
 48
15.0
100
AcDbMText
 10
755.5824332606312
 20
368.195372297383
 30
0.0
 40
0.18
 41
0.0
 71
     5
 72
     1
  1
\A1;280.0000
 73
     1
 44
1.0
1001
ACAD
1000
MTEXTBEGIN
1070
    73
1070
     1
1070
    44
1040
1.0
1070
    74
1070
     0
1000
MTEXTEND
  0
POINT
  5
31A
330
312
100
AcDbEntity
  8
DEFPOINTS
 62
     0
 48
15.0
100
AcDbPoint
 10
584.4887949269905
 20
362.6146793030885
 30
0.0
  0
POINT
  5
31B
330
312
100
AcDbEntity
  8
DEFPOINTS
 62
     0
 48
15.0
100
AcDbPoint
 10
808.1067377402323
 20
531.1228857856618
 30
0.0
  0
POINT
  5
31C
330
312
100
AcDbEntity
  8
DEFPOINTS
 62
     0
 48
15.0
100
AcDbPoint
 10
867.3914046672521
 20
452.4494755386696
 30
0.0
  0
ENDBLK
  5
31E
330
312
100
AcDbEntity
  8
0
 48
15.0
100
AcDbBlockEnd
  0
BLOCK
  5
32B
330
31F
100
AcDbEntity
  8
0
 48
15.0
100
AcDbBlockBegin
  2
*D9
 70
     1
 10
0.0
 20
0.0
 30
0.0
  3
*D9
  1

  0
LINE
  5
320
330
31F
100
AcDbEntity
  8
0
 62
     0
 48
15.0
370
    -2
100
AcDbLine
 10
594.5512949269905
 20
362.6146793030884
 30
0.0
 11
709.8663964259802
 21
362.6146793030886
 31
0.0
  0
ARC
  5
321
330
31F
100
AcDbEntity
  8
0
 62
     0
 48
15.0
370
    -2
100
AcDbCircle
 10
584.4887949269906
 20
362.6146793030885
 30
0.0
 40
125.1976014989897
100
AcDbArc
 50
0.0823757090961646
 51
18.4131574433774
  0
ARC
  5
322
330
31F
100
AcDbEntity
  8
0
 62
     0
 48
15.0
370
    -2
100
AcDbCircle
 10
584.4887949269906
 20
362.6146793030885
 30
0.0
 40
125.1976014989897
100
AcDbArc
 50
18.58688662055048
 51
36.91762429090386
  0
SOLID
  5
323
330
31F
100
AcDbEntity
  8
0
 62
     0
 48
15.0
100
AcDbTrace
 10
709.7162670227787
 20
362.7947008224881
 30
0.0
 11
709.6562670382816
 21
362.7946576906714
 31
0.0
 12
709.6863964259803
 22
362.6146793030886
 32
0.0
 13
709.6863964259803
 23
362.6146793030886
 33
0.0
  0
SOLID
  5
324
330
31F
100
AcDbEntity
  8
0
 62
     0
 48
15.0
100
AcDbTrace
 10
684.5602965554119
 20
437.7986072982637
 30
0.0
 11
684.608240631009
 21
437.8346817437225
 31
0.0
 12
684.4760452568341
 22
437.9604767477838
 32
0.0
 13
684.4760452568341
 23
437.9604767477838
 33
0.0
  0
MTEXT
  5
325
330
31F
100
AcDbEntity
  8
0
 62
     0
 48
15.0
100
AcDbMText
 10
703.2166420035617
 20
402.3404612294672
 30
0.0
 40
0.18
 41
0.0
 71
     5
 72
     1
  1
\A1;37°
 73
     1
 44
1.0
1001
ACAD
1000
MTEXTBEGIN
1070
    73
1070
     1
1070
    44
1040
1.0
1070
    74
1070
     0
1000
MTEXTEND
  0
POINT
  5
326
330
31F
100
AcDbEntity
  8
DEFPOINTS
 62
     0
 48
15.0
100
AcDbPoint
 10
706.7970202044675
 20
389.3567332738255
 30
0.0
  0
POINT
  5
327
330
31F
100
AcDbEntity
  8
DEFPOINTS
 62
     0
 48
15.0
100
AcDbPoint
 10
574.4887949269905
 20
362.6146793030884
 30
0.0
  0
POINT
  5
328
330
31F
100
AcDbEntity
  8
DEFPOINTS
 62
     0
 48
15.0
100
AcDbPoint
 10
808.1067377402321
 20
531.1228857856617
 30
0.0
  0
POINT
  5
329
330
31F
100
AcDbEntity
  8
DEFPOINTS
 62
     0
 48
15.0
100
AcDbPoint
 10
584.4887949269905
 20
362.6146793030884
 30
0.0
  0
POINT
  5
32A
330
31F
100
AcDbEntity
  8
DEFPOINTS
 62
     0
 48
15.0
100
AcDbPoint
 10
594.4887949269904
 20
362.6146793030884
 30
0.0
  0
ENDBLK
  5
32C
330
31F
100
AcDbEntity
  8
0
 48
15.0
100
AcDbBlockEnd
  0
BLOCK
  5
336
330
32D
100
AcDbEntity
  8
0
 48
15.0
100
AcDbBlockBegin
  2
*D10
 70
     1
 10
0.0
 20
0.0
 30
0.0
  3
*D10
  1

  0
LINE
  5
338
330
32D
100
AcDbEntity
  8
0
 62
     0
 48
15.0
370
    -2
100
AcDbLine
 10
695.9019479820605
 20
659.240088143475
 30
0.0
 11
720.7419479820611
 21
659.240088143475
 31
0.0
  0
LINE
  5
339
330
32D
100
AcDbEntity
  8
0
 62
     0
 48
15.0
370
    -2
100
AcDbLine
 10
720.7419479820611
 20
659.240088143475
 30
0.0
 11
798.1459969119716
 21
545.7299403194213
 31
0.0
  0
MTEXT
  5
33A
330
32D
100
AcDbEntity
  8
0
 62
     0
 48
15.0
100
AcDbMText
 10
695.2419479820605
 20
659.240088143475
 30
0.0
 40
0.18
 41
0.0
 71
     5
 72
     1
  1
\A1;\U+220535.0000
 73
     1
 44
1.0
1001
ACAD
1000
MTEXTBEGIN
1070
    73
1070
     1
1070
    44
1040
1.0
1070
    74
1070
     0
1000
MTEXTEND
  0
SOLID
  5
33B
330
32D
100
AcDbEntity
  8
0
 62
     0
 48
15.0
100
AcDbTrace
 10
798.1707826379904
 20
545.7468420289715
 30
0.0
 11
798.1212111859528
 21
545.713038609871
 31
0.0
 12
798.2474071692729
 22
545.5812259633083
 32
0.0
 13
798.2474071692729
 23
545.5812259633083
 33
0.0
  0
LINE
  5
33C
330
32D
100
AcDbEntity
  8
0
 62
     0
 48
15.0
370
    -2
100
AcDbLine
 10
808.0167377402323
 20
531.1228857856621
 30
0.0
 11
808.1967377402325
 21
531.1228857856621
 31
0.0
  0
LINE
  5
33D
330
32D
100
AcDbEntity
  8
0
 62
     0
 48
15.0
370
    -2
100
AcDbLine
 10
808.1067377402325
 20
531.032885785662
 30
0.0
 11
808.1067377402325
 21
531.2128857856622
 31
0.0
  0
POINT
  5
33E
330
32D
100
AcDbEntity
  8
DEFPOINTS
 62
     0
 48
15.0
100
AcDbPoint
 10
798.2474071692729
 20
545.5812259633083
 30
0.0
  0
POINT
  5
33F
330
32D
100
AcDbEntity
  8
DEFPOINTS
 62
     0
 48
15.0
100
AcDbPoint
 10
817.9660683111919
 20
516.6645456080157
 30
0.0
  0
ENDBLK
  5
337
330
32D
100
AcDbEntity
  8
0
 48
15.0
100
AcDbBlockEnd
  0
BLOCK
  5
34F
330
342
100
AcDbEntity
  8
0
 48
15.0
100
AcDbBlockBegin
  2
*D11
 70
     1
 10
0.0
 20
0.0
 30
0.0
  3
*D11
  1

  0
LINE
  5
343
330
342
100
AcDbEntity
  8
0
  6
Continuous
 62
     0
 48
15.0
370
    -2
100
AcDbLine
 10
904.4887949269904
 20
362.6146793030884
 30
0.0
 11
997.6756688805751
 21
362.6146793030884
 31
0.0
  0
LINE
  5
344
330
342
100
AcDbEntity
  8
0
  6
Continuous
 62
     0
 48
15.0
370
    -2
100
AcDbLine
 10
824.0794479411782
 20
543.1591862487026
 30
0.0
 11
914.4745047517581
 21
611.276747417587
 31
0.0
  0
ARC
  5
345
330
342
100
AcDbEntity
  8
0
  6
Continuous
 62
     0
 48
15.0
370
    -2
100
AcDbCircle
 10
584.4887949269906
 20
362.6146793030885
 30
0.0
 40
398.1868739535847
100
AcDbArc
 50
5.758090163338241
 51
15.92637665116137
  0
ARC
  5
346
330
342
100
AcDbEntity
  8
0
  6
Continuous
 62
     0
 48
15.0
370
    -2
100
AcDbCircle
 10
584.4887949269906
 20
362.6146793030885
 30
0.0
 40
398.1868739535847
100
AcDbArc
 50
21.11293226802405
 51
31.24190983666171
  0
SOLID
  5
347
330
342
100
AcDbEntity
  8
0
  6
Continuous
 62
     0
 48
15.0
100
AcDbTrace
 10
987.3248139294874
 20
402.8990422092908
 30
0.0
 11
974.0083100113185
 21
402.2293399059002
 31
0.0
 12
982.6756688805753
 22
362.6146793030884
 32
0.0
 13
982.6756688805753
 23
362.6146793030884
 33
0.0
  0
SOLID
  5
348
330
342
100
AcDbEntity
  8
0
  6
Continuous
 62
     0
 48
15.0
100
AcDbTrace
 10
919.4136094175787
 20
565.3957006158607
 30
0.0
 11
930.4516792235324
 21
572.8749246890296
 31
0.0
 12
902.4949721010488
 22
602.2495220703064
 32
0.0
 13
902.4949721010488
 23
602.2495220703064
 33
0.0
  0
MTEXT
  5
349
330
342
100
AcDbEntity
  8
0
  6
Continuous
 62
     0
 48
15.0
100
AcDbMText
 10
962.0988266897841
 20
488.9612285279482
 30
0.0
 40
30.0
 41
0.0
 71
     5
 72
     1
  1
\A1;37°
 73
     1
 44
1.0
1001
ACAD
1000
MTEXTBEGIN
1070
    73
1070
     1
1070
    44
1040
1.0
1070
    74
1070
     0
1000
MTEXTEND
  0
POINT
  5
34A
330
342
100
AcDbEntity
  8
DEFPOINTS
  6
Continuous
 62
     0
 48
15.0
100
AcDbPoint
 10
973.4861023749477
 20
447.666906711708
 30
0.0
  0
POINT
  5
34B
330
342
100
AcDbEntity
  8
DEFPOINTS
  6
Continuous
 62
     0
 48
15.0
100
AcDbPoint
 10
584.4887949269905
 20
362.6146793030884
 30
0.0
  0
POINT
  5
34C
330
342
100
AcDbEntity
  8
DEFPOINTS
  6
Continuous
 62
     0
 48
15.0
100
AcDbPoint
 10
808.1067377402321
 20
531.1228857856617
 30
0.0
  0
POINT
  5
34D
330
342
100
AcDbEntity
  8
DEFPOINTS
  6
Continuous
 62
     0
 48
15.0
100
AcDbPoint
 10
584.4887949269905
 20
362.6146793030884
 30
0.0
  0
POINT
  5
34E
330
342
100
AcDbEntity
  8
DEFPOINTS
  6
Continuous
 62
     0
 48
15.0
100
AcDbPoint
 10
884.4887949269905
 20
362.6146793030884
 30
0.0
  0
ENDBLK
  5
350
330
342
100
AcDbEntity
  8
0
 48
15.0
100
AcDbBlockEnd
  0
BLOCK
  5
35D
330
352
100
AcDbEntity
  8
0
 48
15.0
100
AcDbBlockBegin
  2
*D12
 70
     1
 10
0.0
 20
0.0
 30
0.0
  3
*D12
  1

  0
LINE
  5
353
330
352
100
AcDbEntity
  8
0
  6
Continuous
 62
     0
 48
15.0
370
    -2
100
AcDbLine
 10
572.4524944639495
 20
378.5873895040343
 30
0.0
 11
510.2401903290931
 21
461.1459055472695
 31
0.0
  0
LINE
  5
354
330
352
100
AcDbEntity
  8
0
  6
Continuous
 62
     0
 48
15.0
370
    -2
100
AcDbLine
 10
796.070437277191
 20
547.0955959866075
 30
0.0
 11
733.8581331423347
 21
629.6541120298428
 31
0.0
  0
LINE
  5
355
330
352
100
AcDbEntity
  8
0
  6
Continuous
 62
     0
 48
15.0
370
    -2
100
AcDbLine
 10
551.2128360782655
 20
473.2389738226421
 30
0.0
 11
608.4060822818066
 21
516.3371761378466
 31
0.0
  0
LINE
  5
356
330
352
100
AcDbEntity
  8
0
  6
Continuous
 62
     0
 48
15.0
370
    -2
100
AcDbLine
 10
710.9399380877237
 20
593.6019784530515
 30
0.0
 11
653.7466918841825
 21
550.5037761378467
 31
0.0
  0
SOLID
  5
357
330
352
100
AcDbEntity
  8
0
  6
Continuous
 62
     0
 48
15.0
100
AcDbTrace
 10
547.2007359239186
 20
478.5632105562907
 30
0.0
 11
555.2249362326125
 21
467.9147370889935
 31
0.0
 12
519.2674156763738
 22
449.1663728965601
 32
0.0
 13
519.2674156763738
 23
449.1663728965601
 33
0.0
  0
SOLID
  5
358
330
352
100
AcDbEntity
  8
0
  6
Continuous
 62
     0
 48
15.0
100
AcDbTrace
 10
706.9278379333768
 20
598.9262151867001
 30
0.0
 11
714.9520382420708
 21
588.2777417194029
 31
0.0
 12
742.8853584896154
 22
617.6745793791334
 32
0.0
 13
742.8853584896154
 23
617.6745793791334
 33
0.0
  0
MTEXT
  5
359
330
352
100
AcDbEntity
  8
0
  6
Continuous
 62
     0
 48
15.0
100
AcDbMText
 10
631.0763870829946
 20
533.4204761378467
 30
0.0
 40
30.0
 41
0.0
 71
     5
 72
     1
  1
\A1;280
 73
     1
 44
1.0
1001
ACAD
1000
MTEXTBEGIN
1070
    73
1070
     1
1070
    44
1040
1.0
1070
    74
1070
     0
1000
MTEXTEND
  0
POINT
  5
35A
330
352
100
AcDbEntity
  8
DEFPOINTS
  6
Continuous
 62
     0
 48
15.0
100
AcDbPoint
 10
584.4887949269905
 20
362.6146793030884
 30
0.0
  0
POINT
  5
35B
330
352
100
AcDbEntity
  8
DEFPOINTS
  6
Continuous
 62
     0
 48
15.0
100
AcDbPoint
 10
808.1067377402321
 20
531.1228857856616
 30
0.0
  0
POINT
  5
35C
330
352
100
AcDbEntity
  8
DEFPOINTS
  6
Continuous
 62
     0
 48
15.0
100
AcDbPoint
 10
742.8853584896154
 20
617.6745793791334
 30
0.0
  0
ENDBLK
  5
35E
330
352
100
AcDbEntity
  8
0
 48
15.0
100
AcDbBlockEnd
  0
BLOCK
  5
367
330
360
100
AcDbEntity
  8
0
 48
15.0
100
AcDbBlockBegin
  2
*D13
 70
     1
 10
0.0
 20
0.0
 30
0.0
  3
*D13
  1

  0
LINE
  5
361
330
360
100
AcDbEntity
  8
0
  6
Continuous
 62
     0
 48
15.0
370
    -2
100
AcDbLine
 10
907.4903460957758
 20
653.3094195586173
 30
0.0
 11
867.4903460957757
 21
653.3094195586174
 31
0.0
  0
LINE
  5
362
330
360
100
AcDbEntity
  8
0
  6
Continuous
 62
     0
 48
15.0
370
    -2
100
AcDbLine
 10
867.4903460957757
 20
653.3094195586174
 30
0.0
 11
833.2409966585965
 21
582.8386380147908
 31
0.0
  0
MTEXT
  5
363
330
360
100
AcDbEntity
  8
0
  6
Continuous
 62
     0
 48
15.0
100
AcDbMText
 10
949.5736460957758
 20
653.3094195586173
 30
0.0
 40
30.0
 41
0.0
 71
     5
 72
     1
  1
\A1;\U+220535
 73
     1
 44
1.0
1001
ACAD
1000
MTEXTBEGIN
1070
    73
1070
     1
1070
    44
1040
1.0
1070
    74
1070
     0
1000
MTEXTEND
  0
SOLID
  5
364
330
360
100
AcDbEntity
  8
0
  6
Continuous
 62
     0
 48
15.0
100
AcDbTrace
 10
827.2449674146395
 20
585.7527549908329
 30
0.0
 11
839.2370259025534
 21
579.9245210387486
 31
0.0
 12
815.7562948023432
 22
546.862462551049
 32
0.0
 13
815.7562948023432
 23
546.862462551049
 33
0.0
  0
POINT
  5
365
330
360
100
AcDbEntity
  8
DEFPOINTS
  6
Continuous
 62
     0
 48
15.0
100
AcDbPoint
 10
815.7562948023432
 20
546.862462551049
 30
0.0
  0
POINT
  5
366
330
360
100
AcDbEntity
  8
DEFPOINTS
  6
Continuous
 62
     0
 48
15.0
100
AcDbPoint
 10
800.4571806781216
 20
515.3833090202749
 30
0.0
  0
ENDBLK
  5
368
330
360
100
AcDbEntity
  8
0
 48
15.0
100
AcDbBlockEnd
  0
BLOCK
  5
371
330
36A
100
AcDbEntity
  8
0
 48
15.0
100
AcDbBlockBegin
  2
*D14
 70
     1
 10
0.0
 20
0.0
 30
0.0
  3
*D14
  1

  0
LINE
  5
36B
330
36A
100
AcDbEntity
  8
0
  6
Continuous
 62
     0
 48
15.0
370
    -2
100
AcDbLine
 10
280.6054407182019
 20
601.3494802482118
 30
0.0
 11
320.6054407182019
 21
601.3494802482118
 31
0.0
  0
LINE
  5
36C
330
36A
100
AcDbEntity
  8
0
  6
Continuous
 62
     0
 48
15.0
370
    -2
100
AcDbLine
 10
320.6054407182019
 20
601.3494802482118
 30
0.0
 11
382.0431131891986
 21
545.7669272983578
 31
0.0
  0
MTEXT
  5
36D
330
36A
100
AcDbEntity
  8
0
  6
Continuous
 62
     0
 48
15.0
100
AcDbMText
 10
223.5221407182019
 20
601.3494802482118
 30
0.0
 40
30.0
 41
0.0
 71
     5
 72
     1
  1
\A1;\U+2205466
 73
     1
 44
1.0
1001
ACAD
1000
MTEXTBEGIN
1070
    73
1070
     1
1070
    44
1040
1.0
1070
    74
1070
     0
1000
MTEXTEND
  0
SOLID
  5
36E
330
36A
100
AcDbEntity
  8
0
  6
Continuous
 62
     0
 48
15.0
100
AcDbTrace
 10
386.5156955578255
 20
550.7106557901233
 30
0.0
 11
377.5705308205718
 21
540.8231988065925
 31
0.0
 12
411.7054841397908
 22
518.9314330865967
 32
0.0
 13
411.7054841397908
 23
518.9314330865967
 33
0.0
  0
POINT
  5
36F
330
36A
100
AcDbEntity
  8
DEFPOINTS
  6
Continuous
 62
     0
 48
15.0
100
AcDbPoint
 10
411.7054841397908
 20
518.9314330865967
 30
0.0
  0
POINT
  5
370
330
36A
100
AcDbEntity
  8
DEFPOINTS
  6
Continuous
 62
     0
 48
15.0
100
AcDbPoint
 10
757.2721057141903
 20
206.2979255195803
 30
0.0
  0
ENDBLK
  5
372
330
36A
100
AcDbEntity
  8
0
 48
15.0
100
AcDbBlockEnd
  0
ENDSEC
  0
SECTION
  2
ENTITIES
  0
CIRCLE
  5
2C7
330
2
100
AcDbEntity
  8
0
  6
Continuous
 48
15.0
100
AcDbCircle
 10
584.4887949269905
 20
362.6146793030884
 30
0.0
 40
233.0
  0
LINE
  5
30D
330
2
100
AcDbEntity
  8
0
100
AcDbLine
 10
808.1067377402321
 20
531.1228857856617
 30
0.0
 11
584.4887949269905
 21
362.6146793030884
 31
0.0
  0
CIRCLE
  5
311
330
2
100
AcDbEntity
  8
2NDRESTRIKEMATERIAL
 48
500.0
100
AcDbCircle
 10
808.1067377402323
 20
531.122885785662
 30
0.0
 40
17.5
  0
LINE
  5
340
330
2
100
AcDbEntity
  8
0
  6
Continuous
 48
15.0
100
AcDbLine
 10
584.4887949269905
 20
362.6146793030884
 30
0.0
 11
884.4887949269905
 21
362.6146793030884
 31
0.0
  0
DIMENSION
  5
341
330
2
100
AcDbEntity
  8
0
  6
Continuous
 48
15.0
100
AcDbDimension
  2
*D11
 10
884.4887949269905
 20
362.6146793030884
 30
0.0
 11
962.0988266897841
 21
488.9612285279481
 31
0.0
 70
    34
 71
     5
 42
0.645771823237901
  3
STANDARD
100
AcDb2LineAngularDimension
 13
808.1067377402321
 23
531.1228857856617
 33
0.0
 14
584.4887949269905
 24
362.6146793030884
 34
0.0
 15
584.4887949269905
 25
362.6146793030884
 35
0.0
 16
973.4861023749477
 26
447.666906711708
 36
0.0
1001
ACAD
1000
DSTYLE
1002
{
1070
    41
1040
40.0
1070
    42
1040
20.0
1070
    43
1040
12.5
1070
    44
1040
15.0
1070
    47
1040
1.0
1070
    78
1070
     8
1070
   140
1040
30.0
1070
   141
1040
0.0
1070
   143
1040
0.03937
1070
   147
1040
2.083299999999999
1070
   271
1070
     0
1070
   272
1070
     0
1070
   284
1070
     8
1002
}
  0
DIMENSION
  5
351
330
2
100
AcDbEntity
  8
0
  6
Continuous
 48
15.0
100
AcDbDimension
  2
*D12
 10
742.8853584896154
 20
617.6745793791334
 30
0.0
 11
631.0763870829946
 21
533.4204761378467
 31
0.0
 70
    33
 71
     5
 42
279.9999999999995
  3
STANDARD
100
AcDbAlignedDimension
 13
584.4887949269905
 23
362.6146793030884
 33
0.0
 14
808.1067377402321
 24
531.1228857856617
 34
0.0
1001
ACAD
1000
DSTYLE
1002
{
1070
    41
1040
40.0
1070
    42
1040
20.0
1070
    43
1040
12.5
1070
    44
1040
15.0
1070
    47
1040
1.0
1070
    78
1070
     8
1070
   140
1040
30.0
1070
   141
1040
0.0
1070
   143
1040
0.03937
1070
   147
1040
2.083299999999999
1070
   271
1070
     0
1070
   272
1070
     0
1070
   284
1070
     8
1002
}
  0
DIMENSION
  5
35F
330
2
100
AcDbEntity
  8
0
  6
Continuous
 48
15.0
100
AcDbDimension
  2
*D13
 10
800.4571806781216
 20
515.3833090202749
 30
0.0
 11
949.5736460957758
 21
653.3094195586173
 31
0.0
 70
   163
 71
     5
 42
35.0
  3
STANDARD
100
AcDbDiametricDimension
 15
815.7562948023432
 25
546.862462551049
 35
0.0
 40
0.0
1001
ACAD
1000
DSTYLE
1002
{
1070
    41
1040
40.0
1070
    42
1040
20.0
1070
    43
1040
12.5
1070
    44
1040
15.0
1070
    47
1040
1.0
1070
    78
1070
     8
1070
   140
1040
30.0
1070
   141
1040
0.0
1070
   143
1040
0.03937
1070
   147
1040
2.083299999999999
1070
   271
1070
     0
1070
   272
1070
     0
1070
   284
1070
     8
1070
   288
1070
     1
1002
}
  0
DIMENSION
  5
369
330
2
100
AcDbEntity
  8
0
  6
Continuous
 48
15.0
100
AcDbDimension
  2
*D14
 10
757.2721057141903
 20
206.2979255195803
 30
0.0
 11
223.5221407182019
 21
601.3494802482118
 31
0.0
 70
   163
 71
     5
 42
466.0
  3
STANDARD
100
AcDbDiametricDimension
 15
411.7054841397908
 25
518.9314330865967
 35
0.0
 40
0.0
1001
ACAD
1000
DSTYLE
1002
{
1070
    41
1040
40.0
1070
    42
1040
20.0
1070
    43
1040
12.5
1070
    44
1040
15.0
1070
    47
1040
1.0
1070
    78
1070
     8
1070
   140
1040
30.0
1070
   141
1040
0.0
1070
   143
1040
0.03937
1070
   147
1040
2.083299999999999
1070
   271
1070
     0
1070
   272
1070
     0
1070
   284
1070
     8
1070
   288
1070
     1
1002
}
  0
ENDSEC
  0
SECTION
  2
OBJECTS
  0
DICTIONARY
  5
7
330
0
100
AcDbDictionary
281
     1
  3
ACAD_COLOR
350
23
  3
ACAD_GROUP
350
1F
  3
ACAD_LAYOUT
350
B
  3
ACAD_MATERIAL
350
22
  3
ACAD_MLINESTYLE
350
20
  3
ACAD_PLOTSETTINGS
350
21
  3
ACAD_PLOTSTYLENAME
350
6
  3
ACDBHEADERROUNDTRIPXREC
350
374
  3
AcDbVariableDictionary
350
1BE
  0
DICTIONARY
  5
23
102
{ACAD_REACTORS
330
7
102
}
330
7
100
AcDbDictionary
281
     1
  0
DICTIONARY
  5
1F
102
{ACAD_REACTORS
330
7
102
}
330
7
100
AcDbDictionary
281
     1
  0
DICTIONARY
  5
B
102
{ACAD_REACTORS
330
7
102
}
330
7
100
AcDbDictionary
281
     1
  3
Layout1
350
F
  3
Model
350
A
  0
DICTIONARY
  5
22
102
{ACAD_REACTORS
330
7
102
}
330
7
100
AcDbDictionary
281
     1
  0
DICTIONARY
  5
20
102
{ACAD_REACTORS
330
7
102
}
330
7
100
AcDbDictionary
281
     1
  3
STANDARD
350
24
  0
DICTIONARY
  5
21
102
{ACAD_REACTORS
330
7
102
}
330
7
100
AcDbDictionary
281
     1
  0
ACDBDICTIONARYWDFLT
  5
6
102
{ACAD_REACTORS
330
7
102
}
330
7
100
AcDbDictionary
281
     1
  3
Normal
350
5
100
AcDbDictionaryWithDefault
340
5
  0
DICTIONARY
  5
374
102
{ACAD_REACTORS
330
7
102
}
330
7
100
AcDbDictionary
281
     1
  3
COLORDICT
350
376
  3
MATERIALDICT
350
375
  0
DICTIONARY
  5
1BE
102
{ACAD_REACTORS
330
7
102
}
330
7
100
AcDbDictionary
281
     1
  3
DIMASSOC
350
1C0
  3
HIDETEXT
350
1BF
  3
PROJECTNAME
350
1C1
  0
LAYOUT
  5
F
102
{ACAD_XDICTIONARY
360
379
102
}
102
{ACAD_REACTORS
330
B
102
}
330
B
100
AcDbPlotSettings
  1

  2
Meto V40 - (V)
  4

  6

 40
0.0
 41
0.0
 42
0.0
 43
0.0
 44
0.0
 45
0.0
 46
0.0
 47
0.0
 48
0.0
 49
0.0
140
0.0
141
0.0
142
1.0
143
1.0
 70
   688
 72
     0
 73
     0
 74
     5
  7

 75
    16
147
1.0
148
0.0
149
0.0
100
AcDbLayout
  1
Layout1
 70
     1
 71
     1
 10
0.0
 20
0.0
 11
12.0
 21
9.0
 12
0.0
 22
0.0
 32
0.0
 14
1.000000000000000E+20
 24
1.000000000000000E+20
 34
1.000000000000000E+20
 15
-1.000000000000000E+20
 25
-1.000000000000000E+20
 35
-1.000000000000000E+20
146
0.0
 13
0.0
 23
0.0
 33
0.0
 16
1.0
 26
0.0
 36
0.0
 17
0.0
 27
1.0
 37
0.0
 76
     0
330
C
  0
LAYOUT
  5
A
102
{ACAD_XDICTIONARY
360
377
102
}
102
{ACAD_REACTORS
330
B
102
}
330
B
100
AcDbPlotSettings
  1

  2
Meto V40 - (V)
  4

  6

 40
0.0
 41
0.0
 42
0.0
 43
0.0
 44
0.0
 45
0.0
 46
0.0
 47
0.0
 48
0.0
 49
0.0
140
0.0
141
0.0
142
1.0
143
1.0
 70
  1712
 72
     0
 73
     0
 74
     0
  7

 75
     0
147
1.0
148
0.0
149
0.0
100
AcDbLayout
  1
Model
 70
     1
 71
     0
 10
0.0
 20
0.0
 11
12.0
 21
9.0
 12
0.0
 22
0.0
 32
0.0
 14
0.0
 24
0.0
 34
0.0
 15
0.0
 25
0.0
 35
0.0
146
0.0
 13
0.0
 23
0.0
 33
0.0
 16
1.0
 26
0.0
 36
0.0
 17
0.0
 27
1.0
 37
0.0
 76
     0
330
2
  0
MLINESTYLE
  5
24
102
{ACAD_REACTORS
330
20
102
}
330
20
100
AcDbMlineStyle
  2
STANDARD
 70
     0
  3

 62
     0
 51
90.0
 52
90.0
 71
     2
 49
0.5
 62
   256
  6
BYLAYER
 49
-0.5
 62
   256
  6
BYLAYER
  0
ACDBPLACEHOLDER
  5
5
102
{ACAD_REACTORS
330
6
102
}
330
6
  0
XRECORD
  5
376
102
{ACAD_REACTORS
330
374
102
}
330
374
100
AcDbXrecord
280
     1
340
23
  0
XRECORD
  5
375
102
{ACAD_REACTORS
330
374
102
}
330
374
100
AcDbXrecord
280
     1
340
22
  0
DICTIONARYVAR
  5
1C0
102
{ACAD_REACTORS
330
1BE
102
}
330
1BE
100
DictionaryVariables
280
     0
  1
1
  0
DICTIONARYVAR
  5
1BF
102
{ACAD_REACTORS
330
1BE
102
}
330
1BE
100
DictionaryVariables
280
     0
  1
1
  0
DICTIONARYVAR
  5
1C1
102
{ACAD_REACTORS
330
1BE
102
}
330
1BE
100
DictionaryVariables
280
     0
  1

  0
DICTIONARY
  5
379
330
F
100
AcDbDictionary
280
     1
281
     1
  3
ACAD_XREC_ROUNDTRIP
360
37A
  0
DICTIONARY
  5
377
330
A
100
AcDbDictionary
280
     1
281
     1
  3
ACAD_XREC_ROUNDTRIP
360
378
  0
XRECORD
  5
37A
102
{ACAD_REACTORS
330
379
102
}
330
379
100
AcDbXrecord
280
     1
102
SHADEPLOT
 70
     0
102
SHADEPLOTRESLEVEL
 70
     2
102
SHADEPLOTCUSTOMDPI
 70
   300
  0
XRECORD
  5
378
102
{ACAD_REACTORS
330
377
102
}
330
377
100
AcDbXrecord
280
     1
102
SHADEPLOT
 70
     0
102
SHADEPLOTRESLEVEL
 70
     2
102
SHADEPLOTCUSTOMDPI
 70
   300
  0
ENDSEC
  0
EOF
